↑↓Torrent.by
Поиск
Логин: Регистрация
Пароль: Восстановить пароль
Загрузка...

Гоголь. Страшная месть (2018) WEB-DL 1080p | iTunes

Скачать gogol-strashnaya-mest-2018-web-dl-1080p-itunes.torrent
U Магнитная ссылка Размер: 3.64 GB Раздают: 2279 Качают: 1087 Добавлен: 2018-10-10 08:31:45
Гоголь. Страшная месть (2018) WEB-DL 1080p | iTunes

«Начни с финала»

Название: Гоголь. Страшная месть
Год выпуска: 2018
Жанр:  Детектив, приключения, триллер
Режиссёр: Егор Баранов
В ролях: Александр Петров, Олег Меньшиков, Евгений Стычкин, Артем Сучков, Таисия Вилкова, Юлия Франц, Ян Цапник, Евгений Сытый, Сергей Бадюк, Артем Ткаченко

Описание:
Две сотни лет назад малороссийские хутора разоряла шайка нехристей-ляхов во главе с могущественным колдуном. С тех пор рыщет в окрестностях Диканьки неизвестный Чёрный Всадник, ловит молодых девушек и жестоко расправляется с ними, будто мстит за что. И следующей его жертвой может стать Лиза. Чтобы спасти возлюбленную, писарь Николай Гоголь должен разбить злые чары и победить древнее проклятье. Ни одному из смертных ещё не удавалось это, но к счастью, на помощь Гоголю приходит гениальный столичный сыщик Яков Гуро, и у него уже есть главный подозреваемый…

Страна: Россия
Студия: Продюсерская компания «Среда»
Продолжительность: 01:46:38
Язык: Русский

Файл
Формат: MKV
Качество: WEB-DL 1080p
Видео: 1908x796 (2.40:1), 23,976 fps, MPEG-4 AVC ~ 4497 kbps avg, 0.124 bit/pixel
Звук: AC3, 48 kHz, 6 ch, ~384.00 kbps avg | русский | iTunes

Субтитры: Отсутствуют


[+] Инфо-файл
Общее
Уникальный идентификатор                 : 228905047669747027980878242429192510815 (0xAC358231D4A558C5E35C279C2B621D5F)
Полное имя                               : D:TorrentsЗавершенныеGOGOL_STRASHNAY_MEST (2018) WEB-DL 1080p.mkv
Формат                                   : Matroska
Версия формата                           : Version 4 / Version 2
Размер файла                             : 3,64 Гбайт
Продолжительность                        : 1 ч. 46 м.
Общий поток                              : 4883 Кбит/сек
Название фильма                          : GOGOL_STRASHNAY_MEST (2018) WEB-DL 1080p
Дата кодирования                         : UTC 2018-10-09 19:20:54
Программа кодирования                    : mkvmerge v27.0.0 ('Metropolis') 64-bit
Библиотека кодирования                   : libebml v1.3.6 + libmatroska v1.4.9

Видео
Идентификатор                            : 1
Формат                                   : AVC
Формат/Информация                        : Advanced Video Codec
Профиль формата                          : High@L4
Настройки формата                        : CABAC / 5 Ref Frames
Параметр CABAC формата                   : Да
Параметр RefFrames формата               : 5 кадров
Идентификатор кодека                     : V_MPEG4/ISO/AVC
Продолжительность                        : 1 ч. 46 м.
Битрейт                                  : 4497 Кбит/сек
Ширина                                   : 1908 пикселей
Высота                                   : 796 пикселей
Соотношение сторон                       : 2,40:1
Режим частоты кадров                     : Постоянный
Частота кадров                           : 23,976 (24000/1001) кадра/сек
Цветовое пространство                    : YUV
Субдискретизация насыщенности            : 4:2:0
Битовая глубина                          : 8 бит
Тип развёртки                            : Прогрессивная
Бит/(Пиксели*Кадры)                      : 0.124
Размер потока                            : 3,35 Гбайт (92%)
Заголовок                                : GOGOL_STRASHNAY_MEST (2018) WEB-DL 1080p
Язык                                     : English
Default                                  : Да
Forced                                   : Нет
Цветовой диапазон                        : Limited
Основные цвета                           : BT.709
Характеристики трансфера                 : BT.709
Коэффициенты матрицы                     : BT.709

Аудио
Идентификатор                            : 2
Формат                                   : AC-3
Формат/Информация                        : Audio Coding 3
Идентификатор кодека                     : A_AC3
Продолжительность                        : 1 ч. 46 м.
Вид битрейта                             : Постоянный
Битрейт                                  : 384 Кбит/сек
Каналы                                   : 6 каналов
Расположение каналов                     : Front: L C R, Side: L R, LFE
Частота                                  : 48,0 КГц
Частота кадров                           : 31,250 кадров/сек (1536 SPF)
Битовая глубина                          : 16 бит
Метод сжатия                             : С потерями
Размер потока                            : 293 Мбайт (8%)
Заголовок                                : iTunes
Язык                                     : Russian
Default                                  : Да
Forced                                   : Нет

Меню
00:00:00.000                             : en:1
00:02:58.000                             : en:2
00:14:09.000                             : en:3
00:25:12.000                             : en:4
00:36:51.000                             : en:5
00:45:53.000                             : en:6
00:55:19.000                             : en:7
01:04:47.000                             : en:8
01:15:03.000                             : en:9
01:25:43.000                             : en:10
01:33:03.000                             : en:11
01:42:17.000                             : en:12




Скриншоты:
[+] Всего файлов в раздаче - 1:
GOGOL_STRASHNAY_MEST (2018) WEB-DL 1080p.mkv3.64 GB

Текущая раздача:
ДатаКомментарии    РазмерПиры
2018-10-10 U Гоголь. Страшная месть (2018) WEB-DL 1080p | iTunes 3.64 GB ↑ 2279 ↓ 1087

Показать еще раздачи по запросу гоголь:
2018-10-11 U Гоголь. Страшная месть (2018) WEB-DLRip от Generalfilm | КПК | iTunes 405.37 MB ↑ 98 ↓ 12
2018-10-11 U Гоголь. Страшная месть (2018) WEB-DLRip от ExKinoRay | iTunes 746.04 MB ↑ 86 ↓ 13
2018-10-11 U Гоголь. Страшная месть (2018) WEB-DLRip от Scarabey | iTunes 1К1.44 GB ↑ 259 ↓ 79
2018-10-10 U Гоголь. Страшная месть (2018) WEB-DLRip-AVC от Generalfilm| iTunes 1.39 GB ↑ 311 ↓ 100
2018-10-10 U Гоголь. Страшная месть (2018) WEB-DLRip-AVC | iTunes 743.35 MB ↑ 123 ↓ 24
2018-10-10 U Гоголь. Страшная месть (2018) WEB-DLRip-AVC от ExKinoRay | iTunes 1.64 GB ↑ 168 ↓ 83
2018-10-10 U Гоголь. Страшная месть (2018) WEB-DLRip от GeneralFilm | iTunes 746.08 MB ↑ 134 ↓ 79

Отзывы
Зарегистрируйтесь чтобы добавить комментарий.
Обратная связь
Copyleft ©