↑↓Torrent.by
Поиск
Логин: Регистрация
Пароль: Восстановить пароль
Загрузка...

Гоголь. Страшная месть (2018) WEB-DLRip от GeneralFilm | iTunes

Скачать gogol-strashnaya-mest-2018-web-dlrip-ot-generalfilm-itunes.torrent
U Магнитная ссылка Размер: 1.46 GB Раздают: 482 Качают: 269 Добавлен: 2018-10-10 08:31:53
Гоголь. Страшная месть (2018) WEB-DLRip от GeneralFilm | iTunes

Информация о фильме
Название: Гоголь. Страшная месть
Год выхода: 2018
Жанр: Детектив, приключения, триллер
Режиссер: Егор Баранов
В ролях: Александр Петров, Олег Меньшиков, Евгений Стычкин, Артем Сучков, Таисия Вилкова, Юлия Франц, Ян Цапник, Евгений Сытый, Сергей Бадюк, Артем Ткаченко

О фильме:
Две сотни лет назад малороссийские хутора разоряла шайка нехристей-ляхов во главе с могущественным колдуном. С тех пор рыщет в окрестностях Диканьки неизвестный Чёрный Всадник, ловит молодых девушек и жестоко расправляется с ними, будто мстит за что. И следующей его жертвой может стать Лиза. Чтобы спасти возлюбленную, писарь Николай Гоголь должен разбить злые чары и победить древнее проклятье. Ни одному из смертных ещё не удавалось это, но к счастью, на помощь Гоголю приходит гениальный столичный сыщик Яков Гуро, и у него уже есть главный подозреваемый...

Страна: Россия
Студия: Продюсерская компания «Среда»
Продолжительность: 01:46:38
Перевод: Не требуется | iTunes
Субтитры: нет

Файл
Формат: avi
Качество: WEB-DLRip
Видео: XviD build 73, 720x304 (2.35:1), 23.976 fps, ~ 1560 Kbps (~ 0.297 bit/pixel)
Звук: 48.0 kHz, AC3, 5/1 ch, 384 kbps

Релиз:


[+] MediaInfo
General
Complete name               : D:RazdachiGogolj.Strashnaja.Mestj.2018.XviD.WEB-DLRip.GeneralFilm.avi
Format                      : AVI
Format/Info                 : Audio Video Interleave
File size                   : 1.46 GiB
Duration                    : 1 h 46 min
Overall bit rate            : 1 954 kb/s
Writing application         : VirtualDubMod 1.5.10.3 | www.virtualdub-fr.org || (build 2550/release)
Writing library             : VirtualDubMod build 2550/release

Video
ID                          : 0
Format                      : MPEG-4 Visual
Format profile              : Advanced Simple@L5
Format settings, BVOP       : 1
Format settings, QPel       : No
Format settings, GMC        : No warppoints
Format settings, Matrix     : Custom
Codec ID                    : XVID
Codec ID/Hint               : XviD
Duration                    : 1 h 46 min
Bit rate                    : 1 560 kb/s
Width                       : 720 pixels
Height                      : 304 pixels
Display aspect ratio        : 2.35:1
Frame rate                  : 23.976 (24000/1001) FPS
Color space                 : YUV
Chroma subsampling          : 4:2:0
Bit depth                   : 8 bits
Scan type                   : Progressive
Compression mode            : Lossy
Bits/(Pixel*Frame)          : 0.297
Stream size                 : 1.16 GiB (80%)
Writing library             : XviD 73

Audio
ID                          : 1
Format                      : AC-3
Format/Info                 : Audio Coding 3
Format settings, Endianness : Big
Codec ID                    : 2000
Duration                    : 1 h 46 min
Bit rate mode               : Constant
Bit rate                    : 384 kb/s
Channel(s)                  : 6 channels
Channel positions           : Front: L C R, Side: L R, LFE
Sampling rate               : 48.0 kHz
Frame rate                  : 31.250 FPS (1536 SPF)
Bit depth                   : 16 bits
Compression mode            : Lossy
Stream size                 : 293 MiB (20%)
Alignment                   : Split accross interleaves
Interleave, duration        : 42  ms (1.00 video frame)
Interleave, preload duratio : 500  ms
Service kind                : Complete Main



Скриншоты:
[+] Всего файлов в раздаче - 1:
Gogolj.Strashnaja.Mestj.2018.XviD.WEB-DLRip.GeneralFilm.avi1.46 GB

Текущая раздача:
ДатаКомментарии    РазмерПиры
2018-10-10 U Гоголь. Страшная месть (2018) WEB-DLRip от GeneralFilm | iTunes 1 К 1.46 GB ↑ 482 ↓ 269

Показать еще раздачи по запросу гоголь:
2018-10-11 U Гоголь. Страшная месть (2018) WEB-DLRip от Generalfilm | КПК | iTunes 405.37 MB ↑ 98 ↓ 12
2018-10-11 U Гоголь. Страшная месть (2018) WEB-DLRip от ExKinoRay | iTunes 746.04 MB ↑ 85 ↓ 13
2018-10-11 U Гоголь. Страшная месть (2018) WEB-DLRip от Scarabey | iTunes 1К1.44 GB ↑ 258 ↓ 78
2018-10-10 U Гоголь. Страшная месть (2018) WEB-DLRip-AVC от Generalfilm| iTunes 1.39 GB ↑ 305 ↓ 100
2018-10-10 U Гоголь. Страшная месть (2018) WEB-DLRip-AVC | iTunes 743.35 MB ↑ 121 ↓ 24
2018-10-10 U Гоголь. Страшная месть (2018) WEB-DLRip-AVC от ExKinoRay | iTunes 1.64 GB ↑ 161 ↓ 83
2018-10-10 U Гоголь. Страшная месть (2018) WEB-DLRip от GeneralFilm | iTunes 746.08 MB ↑ 133 ↓ 78

Отзывы
alexpn_79
Малороссийские хутора... Ору! Интересно,какой д*лбоеб составлял описание к фильму?

Зарегистрируйтесь чтобы добавить комментарий.
Обратная связь
Copyleft ©