↑↓Torrent.by
Поиск
Логин: Регистрация
Пароль: Восстановить пароль
Загрузка...

Гоголь. Страшная месть (2018) WEB-DLRip от GeneralFilm | iTunes

Скачать gogol-strashnaya-mest-2018-web-dlrip-ot-generalfilm-itunes.torrent
U Магнитная ссылка Размер: 746.08 MB Раздают: 134 Качают: 79 Добавлен: 2018-10-10 08:32:38
Гоголь. Страшная месть (2018) WEB-DLRip от GeneralFilm | iTunes

Информация о фильме
Название: Гоголь. Страшная месть
Год выхода: 2018
Жанр: Детектив, приключения, триллер
Режиссер: Егор Баранов
В ролях: Александр Петров, Олег Меньшиков, Евгений Стычкин, Артем Сучков, Таисия Вилкова, Юлия Франц, Ян Цапник, Евгений Сытый, Сергей Бадюк, Артем Ткаченко

О фильме:
Две сотни лет назад малороссийские хутора разоряла шайка нехристей-ляхов во главе с могущественным колдуном. С тех пор рыщет в окрестностях Диканьки неизвестный Чёрный Всадник, ловит молодых девушек и жестоко расправляется с ними, будто мстит за что. И следующей его жертвой может стать Лиза. Чтобы спасти возлюбленную, писарь Николай Гоголь должен разбить злые чары и победить древнее проклятье. Ни одному из смертных ещё не удавалось это, но к счастью, на помощь Гоголю приходит гениальный столичный сыщик Яков Гуро, и у него уже есть главный подозреваемый...

Страна: Россия
Студия: Продюсерская компания «Среда»
Продолжительность: 01:46:38
Перевод: Не требуется | iTunes
Субтитры: нет

Файл
Формат: avi
Качество: WEB-DLRip
Видео: XviD build 73, 688x288 (2.40:1), 23.976 fps, 841 Kbps (0.177 bit/pixel)
Звук: 48.0 kHz, MP3, 2/0 ch, 128 kbps

Релиз:


[+] MediaInfo
General
Complete name               : D:RazdachiGogolj.Strashnaja.Mestj.2018.XviD.745mb.WEB-DLRip.GeneralFilm.avi
Format                      : AVI
Format/Info                 : Audio Video Interleave
File size                   : 746 MiB
Duration                    : 1 h 46 min
Overall bit rate            : 978 kb/s
Writing application         : VirtualDubMod 1.5.10.3 | www.virtualdub-fr.org || (build 2550/release)
Writing library             : VirtualDubMod build 2550/release

Video
ID                          : 0
Format                      : MPEG-4 Visual
Format profile              : Advanced Simple@L5
Format settings, BVOP       : 1
Format settings, QPel       : No
Format settings, GMC        : No warppoints
Format settings, Matrix     : Custom
Codec ID                    : XVID
Codec ID/Hint               : XviD
Duration                    : 1 h 46 min
Bit rate                    : 841 kb/s
Width                       : 688 pixels
Height                      : 288 pixels
Display aspect ratio        : 2.40:1
Frame rate                  : 23.976 (24000/1001) FPS
Color space                 : YUV
Chroma subsampling          : 4:2:0
Bit depth                   : 8 bits
Scan type                   : Progressive
Compression mode            : Lossy
Bits/(Pixel*Frame)          : 0.177
Stream size                 : 641 MiB (86%)
Writing library             : XviD 73

Audio
ID                          : 1
Format                      : MPEG Audio
Format version              : Version 1
Format profile              : Layer 3
Codec ID                    : 55
Codec ID/Hint               : MP3
Duration                    : 1 h 46 min
Bit rate mode               : Constant
Bit rate                    : 128 kb/s
Channel(s)                  : 2 channels
Sampling rate               : 48.0 kHz
Compression mode            : Lossy
Stream size                 : 97.6 MiB (13%)
Alignment                   : Aligned on interleaves
Interleave, duration        : 42  ms (1.00 video frame)
Interleave, preload duratio : 504  ms
Writing library             : LAME3.99r
Encoding settings           : -m s -V 4 -q 2 -lowpass 17 -b 128



Скриншоты:
[+] Всего файлов в раздаче - 1:
Gogolj.Strashnaja.Mestj.2018.XviD.745mb.WEB-DLRip.GeneralFilm.avi746.08 MB

Текущая раздача:
ДатаКомментарии    РазмерПиры
2018-10-10 U Гоголь. Страшная месть (2018) WEB-DLRip от GeneralFilm | iTunes 746.08 MB ↑ 134 ↓ 79

Показать еще раздачи по запросу гоголь:
2018-10-11 U Гоголь. Страшная месть (2018) WEB-DLRip от Generalfilm | КПК | iTunes 405.37 MB ↑ 98 ↓ 12
2018-10-11 U Гоголь. Страшная месть (2018) WEB-DLRip от ExKinoRay | iTunes 746.04 MB ↑ 86 ↓ 13
2018-10-11 U Гоголь. Страшная месть (2018) WEB-DLRip от Scarabey | iTunes 1К1.44 GB ↑ 259 ↓ 79
2018-10-10 U Гоголь. Страшная месть (2018) WEB-DLRip-AVC от Generalfilm| iTunes 1.39 GB ↑ 311 ↓ 100
2018-10-10 U Гоголь. Страшная месть (2018) WEB-DLRip-AVC | iTunes 743.35 MB ↑ 123 ↓ 24
2018-10-10 U Гоголь. Страшная месть (2018) WEB-DLRip-AVC от ExKinoRay | iTunes 1.64 GB ↑ 168 ↓ 83
2018-10-10 U Гоголь. Страшная месть (2018) WEB-DLRip от GeneralFilm | iTunes 1К1.46 GB ↑ 486 ↓ 269

Отзывы
Зарегистрируйтесь чтобы добавить комментарий.
Обратная связь
Copyleft ©