↑↓Torrent.by
Поиск
Логин: Регистрация
Пароль: Восстановить пароль
Загрузка...

Черный 47-й / Black 47 (2018) WEB-DL 1080p | HDrezka Studio

Скачать chernyy-47-y-black-2018-web-dl-1080p-hdrezka-studio.torrent
U Магнитная ссылка Размер: 3.69 GB Раздают: 262 Качают: 143 Добавлен: 2018-10-10 16:55:52
Черный 47-й / Black 47 (2018) WEB-DL 1080p | HDrezka Studio

Название: Черный 47-й
Оригинальное название: Black 47
Год выхода: 2018
Жанр: Боевик, драма
Режиссер: Лэнс Дэйли
В ролях: Хьюго Уивинг, Джеймс Фрешвилл, Стивен Ри, Фредди Фокс, Барри Кеоган, Мо Данфорд, Сара Грин, Джим Бродбент.

О фильме:
Рейнджер армии Британской империи дезертирует и возвращается домой в Ирландию. Там он узнаёт, что когда он был в армии, в стране разразился ужасающий голод, который унёс жизнь его матери, а его брат был повешен за сопротивление сносу дома. В то же время английские джентльмены, за которых он проливал кровь в далёкой Азии, обогащаются вывозя скудный урожай пшеницы на продажу и обрекают многострадальный народ его родины на вымирание...

 
Страна: Ирландия, Люксембург
Студия: Fastnet Films, Irish Film Board, Primeridian Entertainment
Продолжительность: 01:39:41
Перевод: Профессиональный (многоголосый, закадровый) | HDrezka Studio

Файл
Кодек: H.264
Качество: WEB-DL 1080p | HDrezka Studio
Видео: AVC/H.264, 1920x796, ~4523 kbps, 24 fps
Звук:
Аудио 1: AC3, 6 ch, 384 Kbps - Русский
Аудио 2: AC3, 6 ch, 384 Kbps - Английский
Субтитры: Русские (форс на ирландскую речь), английские (SDH, вшитый хардсаб на ирландскую речь)

Семпл


[+] Доп. инфо
Дорожка №1 получена путем наложения выделенных фраз и диалогов из перевода HDRezka studio на центр оригинальной английской дорожки.
за дорожку и форс русские сабы, огромное спасибо karasidi  



[+] Mediainfo
Общее
Уникальный идентификатор                 : 47986228191939649433761889803385997868 (0x2419CFB68DDE01405FC96D6077948A2C)
Полное имя                               : Black_47.2018.WEB-DL.1080p.mkv
Формат                                   : Matroska
Версия формата                           : Version 4
Размер файла                             : 3,69 Гбайт
Продолжительность                        : 1 ч. 39 м.
Общий поток                              : 5293 Кбит/сек
Дата кодирования                         : UTC 2018-10-10 07:14:13
Программа кодирования                    : mkvmerge v23.0.0 ('The Bride Said No') 64-bit
Библиотека кодирования                   : libebml v1.3.6 + libmatroska v1.4.9

Видео
Идентификатор                            : 1
Формат                                   : AVC
Формат/Информация                        : Advanced Video Codec
Профиль формата                          : High@L4
Настройки формата                        : CABAC / 5 Ref Frames
Параметр CABAC формата                   : Да
Параметр RefFrames формата               : 5 кадров
Идентификатор кодека                     : V_MPEG4/ISO/AVC
Продолжительность                        : 1 ч. 39 м.
Битрейт                                  : 4523 Кбит/сек
Ширина                                   : 1920 пикселей
Высота                                   : 796 пикселей
Соотношение сторон                       : 2,40:1
Режим частоты кадров                     : Постоянный
Частота кадров                           : 24,000 кадра/сек
Цветовое пространство                    : YUV
Субдискретизация насыщенности            : 4:2:0
Битовая глубина                          : 8 бит
Тип развёртки                            : Прогрессивная
Бит/(Пиксели*Кадры)                      : 0.123
Размер потока                            : 3,15 Гбайт (85%)
Язык                                     : English
Default                                  : Да
Forced                                   : Нет
Цветовой диапазон                        : Limited
Основные цвета                           : BT.709
Характеристики трансфера                 : BT.709
Коэффициенты матрицы                     : BT.709

Аудио #1
Идентификатор                            : 2
Формат                                   : AC-3
Формат/Информация                        : Audio Coding 3
Коммерческое название                    : Dolby Digital
Идентификатор кодека                     : A_AC3
Продолжительность                        : 1 ч. 39 м.
Вид битрейта                             : Постоянный
Битрейт                                  : 384 Кбит/сек
Каналы                                   : 6 каналов
Channel layout                           : L R C LFE Ls Rs
Частота                                  : 48,0 КГц
Частота кадров                           : 31,250 кадров/сек (1536 SPF)
Битовая глубина                          : 16 бит
Метод сжатия                             : С потерями
Задержка видео                           : -42 мс.
Размер потока                            : 274 Мбайт (7%)
Заголовок                                : MVO | HDRezka Studio
Язык                                     : Russian
ServiceKind                              : Complete Main
Default                                  : Да
Forced                                   : Нет

Аудио #2
Идентификатор                            : 3
Формат                                   : AC-3
Формат/Информация                        : Audio Coding 3
Коммерческое название                    : Dolby Digital
Идентификатор кодека                     : A_AC3
Продолжительность                        : 1 ч. 39 м.
Вид битрейта                             : Постоянный
Битрейт                                  : 384 Кбит/сек
Каналы                                   : 6 каналов
Channel layout                           : L R C LFE Ls Rs
Частота                                  : 48,0 КГц
Частота кадров                           : 31,250 кадров/сек (1536 SPF)
Битовая глубина                          : 16 бит
Метод сжатия                             : С потерями
Задержка видео                           : -42 мс.
Размер потока                            : 274 Мбайт (7%)
Язык                                     : English
ServiceKind                              : Complete Main
Default                                  : Нет
Forced                                   : Нет

Текст #1
Идентификатор                            : 4
Формат                                   : UTF-8
Идентификатор кодека                     : S_TEXT/UTF8
Идентификатор кодека/Информация          : UTF-8 Plain Text
Продолжительность                        : 1 ч. 14 м.
Битрейт                                  : 6 бит/сек
ElementCount                             : 74
Размер потока                            : 3,32 Кбайт (0%)
Заголовок                                : Forced
Язык                                     : Russian
Default                                  : Да
Forced                                   : Нет

Текст #2
Идентификатор                            : 5
Формат                                   : UTF-8
Идентификатор кодека                     : S_TEXT/UTF8
Идентификатор кодека/Информация          : UTF-8 Plain Text
Продолжительность                        : 1 ч. 39 м.
Битрейт                                  : 32 бит/сек
ElementCount                             : 963
Размер потока                            : 24,0 Кбайт (0%)
Заголовок                                : SDH
Язык                                     : English
Default                                  : Нет
Forced                                   : Нет

Меню
00:00:00.000                             : en:1
00:12:35.120                             : en:2
00:22:59.750                             : en:3
00:37:13.410                             : en:4
00:52:46.660                             : en:5
01:01:12.410                             : en:6
01:11:50.540                             : en:7
01:19:44.370                             : en:8
01:35:46.000                             : en:9  



Скриншоты:
[+] Всего файлов в раздаче - 1:
Black_47.2018.WEB-DL.1080p.mkv3.69 GB

Текущая раздача:
ДатаКомментарии    РазмерПиры
2018-10-10 U Черный 47-й / Black 47 (2018) WEB-DL 1080p | HDrezka Studio 3.69 GB ↑ 262 ↓ 143

Показать еще раздачи по запросу черный:
2018-10-11 U Черный 47-й / Black 47 (2018) WEB-DLRip-AVC от OlLanDGroup | HDrezka Studio 1.75 GB ↑ 57 ↓ 20
2018-10-11 U Чёрный 47-й / Black '47 (2018) WEB-DLRip | HDrezka Studio 1.46 GB ↑ 104 ↓ 20
2018-10-10 U Черный 47-й / Black 47 (2018) WEB-DLRip-AVC от OlLanDGroup | HDrezka Studio 1.62 GB ↑ 112 ↓ 47
2018-10-09 U Черный 47-й / Black 47 (2018) WEB-DLRip от ExKinoRay | P 745.78 MB ↑ 323 ↓ 84
2018-10-09 U Чёрный 47-й / Black '47 (2018) WEB-DLRip | HDrezka Studio 1.37 GB ↑ 764 ↓ 187
2018-08-15 U Черный кофе - Концерт в Питере (2018) WEBRip 720p 1.71 GB ↑ 128 ↓ 43
2018-07-16 U Черный альпинист / Must alpinist / Ghost mountaineer (2015) WEB-DL 1080p | Sub 1К5.15 GB ↑ 35 ↓ 48

Отзывы
Зарегистрируйтесь чтобы добавить комментарий.
Обратная связь
Copyleft ©