↑↓Torrent.by
Поиск
Логин: Регистрация
Пароль: Восстановить пароль
Загрузка...

Черный 47-й / Black 47 (2018) WEB-DLRip-AVC от OlLanDGroup | HDrezka Studio

Скачать chernyy-47-y-black-2018-web-dlrip-avc-ot-ollandgroup-hdrezka-studio.torrent
U Магнитная ссылка Размер: 1.62 GB Раздают: 113 Качают: 47 Добавлен: 2018-10-10 16:56:01
Черный 47-й / Black 47 (2018) WEB-DLRip-AVC от OlLanDGroup | HDrezka Studio

Черный 47-й / Black 47
«In Ireland's Darkest Hour Vengeance Shines a Light»

Год выпуска: 2018
Страна: Ирландия, Люксембург
Производство: Fastnet Films, Irish Film Board, Primeridian Entertainment
Жанр:  Боевик, драма

Режиссёр: Лэнс Дэйли
В ролях: Джеймс Фрешвилл, Дермот Краули, Барри Кеоган, Стивен Ри, Руайри Хидинг, Хьюго Уивинг, Сара Грин, Антония Кэмпбелл-Хьюз, Фредди Фокс, Мо Данфорд, Джеральдин МакАлинден, Джим Бродбент

Перевод:  Профессиональный (многоголосый закадровый) | [HDrezka Studio]
Субтитры: Английские
Реклама: Отсутствует

Описание: Рейнджер армии Британской империи дезертирует и возвращается домой в Ирландию. Там он узнаёт, что когда он был в армии, в стране разразился голод, который унёс жизнь его матери, а его брат был повешен за сопротивление сносу дома. В то же время английские джентльмены, за которых он проливал кровь в далёкой Азии, обогащаются, вывозя скудный урожай пшеницы на продажу, и обрекают многострадальный народ его родины на вымирание.

Качество: WEB-DLRip-AVC | iTunes Version | Black.47.2018.1080p.WEB-DL.DD5.1.H264-FGT
Продолжительность: 01:39:42

Формат: MKV
Видео кодек: MPEG-4 AVC
Аудио кодек: AC3
Видео: 1024x424 (2.40:1), 24,000 fps, x264 ~1 744 kbps avg, 0.167 bit/pixel
Аудио #1: 48 kHz, Audio Coding 3, 2 (L,R) ch, ~192.00 kbps avg | RUS (HDrezka Studio)
Аудио #2: 48 kHz, AC3 Dolby Digital, 3/2 (L,C,R,l,r) + LFE ch, ~384.00 kbps avg | ENG

Дата премьеры (мир):  16 февраля 2018

Релиз:


[+] MediaInfo

Общее
Уникальный идентификатор                 : 323061242228269424116716891141080412307 (0xF30B54FFC6B9F41D50D257C5AE08F093)
Полное имя                               : F:OlLanDGroupBlack.47.2018.WEB-DLRip(AVC).OllanDGroup.mkv
Формат                                   : Matroska
Версия формата                           : Version 4 / Version 2
Размер файла                             : 1,62 Гбайт
Продолжительность                        : 1 ч. 39 м.
Общий поток                              : 2321 Кбит/сек
Название фильма                          : Black.47.2018   #TorpedoUK#
Дата кодирования                         : UTC 2018-10-10 09:17:06
Программа кодирования                    : mkvmerge v25.0.0 ('Prog Noir') 64-bit
Библиотека кодирования                   : libebml v1.3.6 + libmatroska v1.4.9

Видео
Идентификатор                            : 1
Формат                                   : AVC
Формат/Информация                        : Advanced Video Codec
Профиль формата                          : High@L4.1
Параметр CABAC формата                   : Да
Параметр ReFrames формата                : 10 кадров
Идентификатор кодека                     : V_MPEG4/ISO/AVC
Продолжительность                        : 1 ч. 39 м.
Битрейт                                  : 1744 Кбит/сек
Ширина                                   : 1024 пикселя
Высота                                   : 424 пикселя
Соотношение сторон                       : 2,40:1
Режим частоты кадров                     : Постоянный
Частота кадров                           : 24,000 кадра/сек
Цветовое пространство                    : YUV
Субдискретизация насыщенности            : 4:2:0
Битовая глубина                          : 8 бит
Тип развёртки                            : Прогрессивная
Бит/(Пиксели*Кадры)                      : 0.167
Размер потока                            : 1,21 Гбайт (75%)
Библиотека кодирования                   : x264 core 146 r2538 121396c
Настройки программы                      : cabac=1 / ref=10 / deblock=1:-3:-3 / analyse=0x3:0x113 / me=umh / subme=11 / psy=1 / psy_rd=0.97:0.05 / mixed_ref=1 / me_range=48 / chroma_me=1 / trellis=2 / 8x8dct=1 / cqm=0 / deadzone=21,11 / fast_pskip=1 / chroma_qp_offset=-3 / threads=6 / lookahead_threads=1 / sliced_threads=0 / nr=0 / decimate=1 / interlaced=0 / bluray_compat=0 / constrained_intra=0 / bframes=10 / b_pyramid=2 / b_adapt=2 / b_bias=0 / direct=3 / weightb=1 / open_gop=0 / weightp=2 / keyint=240 / keyint_min=24 / scenecut=40 / intra_refresh=0 / rc_lookahead=40 / rc=2pass / mbtree=0 / bitrate=1744 / ratetol=1.0 / qcomp=0.60 / qpmin=0 / qpmax=69 / qpstep=4 / cplxblur=20.0 / qblur=0.5 / vbv_maxrate=50000 / vbv_bufsize=62500 / nal_hrd=none / filler=0 / ip_ratio=1.40 / pb_ratio=1.30 / aq=1:1.00
Язык                                     : English
Default                                  : Да
Forced                                   : Нет

Аудио #1
Идентификатор                            : 2
Формат                                   : AC-3
Формат/Информация                        : Audio Coding 3
Расширение режима                        : CM (complete main)
Параметр Endianness формата              : Big
Идентификатор кодека                     : A_AC3
Продолжительность                        : 1 ч. 39 м.
Вид битрейта                             : Постоянный
Битрейт                                  : 192 Кбит/сек
Каналы                                   : 2 канала
Расположение каналов                     : Front: L R
Частота                                  : 48,0 КГц
Частота кадров                           : 31,250 кадров/сек (1536 spf)
Битовая глубина                          : 16 бит
Метод сжатия                             : С потерями
Размер потока                            : 137 Мбайт (8%)
Заголовок                                : MVO [HDRezka Studio]
Язык                                     : Russian
Default                                  : Да
Forced                                   : Нет

Аудио #2
Идентификатор                            : 3
Формат                                   : AC-3
Формат/Информация                        : Audio Coding 3
Расширение режима                        : CM (complete main)
Параметр Endianness формата              : Big
Идентификатор кодека                     : A_AC3
Продолжительность                        : 1 ч. 39 м.
Вид битрейта                             : Постоянный
Битрейт                                  : 384 Кбит/сек
Каналы                                   : 6 каналов
Расположение каналов                     : Front: L C R, Side: L R, LFE
Частота                                  : 48,0 КГц
Частота кадров                           : 31,250 кадров/сек (1536 spf)
Битовая глубина                          : 16 бит
Метод сжатия                             : С потерями
Размер потока                            : 274 Мбайт (17%)
Заголовок                                : [Original]
Язык                                     : English
Default                                  : Нет
Forced                                   : Нет

Текст
Идентификатор                            : 4
Формат                                   : UTF-8
Идентификатор кодека                     : S_TEXT/UTF8
Идентификатор кодека/Информация          : UTF-8 Plain Text
Продолжительность                        : 1 ч. 37 м.
Битрейт                                  : 27 бит/сек
Count of elements                        : 656
Размер потока                            : 19,2 Кбайт (0%)
Заголовок                                : Full
Язык                                     : English
Default                                  : Нет
Forced                                   : Нет

Меню
00:00:00.000                             : en:1
00:12:35.120                             : en:2
00:22:59.750                             : en:3
00:37:13.410                             : en:4
00:52:46.660                             : en:5
01:01:12.410                             : en:6
01:11:50.540                             : en:7
01:19:44.370                             : en:8
01:35:46.000                             : en:9



Скриншоты:
[+] Всего файлов в раздаче - 1:
Black.47.2018.WEB-DLRip(AVC).OllanDGroup.mkv1.62 GB

Текущая раздача:
ДатаКомментарии    РазмерПиры
2018-10-10 U Черный 47-й / Black 47 (2018) WEB-DLRip-AVC от OlLanDGroup | HDrezka Studio 1.62 GB ↑ 113 ↓ 47

Показать еще раздачи по запросу черный:
2018-10-11 U Черный 47-й / Black 47 (2018) WEB-DLRip-AVC от OlLanDGroup | HDrezka Studio 1.75 GB ↑ 60 ↓ 21
2018-10-11 U Чёрный 47-й / Black '47 (2018) WEB-DLRip | HDrezka Studio 1.46 GB ↑ 106 ↓ 20
2018-10-10 U Черный 47-й / Black 47 (2018) WEB-DL 1080p | HDrezka Studio 3.69 GB ↑ 263 ↓ 144
2018-10-09 U Черный 47-й / Black 47 (2018) WEB-DLRip от ExKinoRay | P 745.78 MB ↑ 334 ↓ 84
2018-10-09 U Чёрный 47-й / Black '47 (2018) WEB-DLRip | HDrezka Studio 1.37 GB ↑ 769 ↓ 187
2018-08-15 U Черный кофе - Концерт в Питере (2018) WEBRip 720p 1.71 GB ↑ 133 ↓ 43
2018-07-16 U Черный альпинист / Must alpinist / Ghost mountaineer (2015) WEB-DL 1080p | Sub 1К5.15 GB ↑ 35 ↓ 48

Отзывы
Зарегистрируйтесь чтобы добавить комментарий.
Обратная связь
Copyleft ©