↑↓Torrent.by
Поиск
Логин: Регистрация
Пароль: Восстановить пароль
Загрузка...

Чёрный 47-й / Black '47 (2018) WEB-DLRip | HDrezka Studio

Скачать chernyy-47-y-black-2018-web-dlrip-hdrezka-studio.torrent
U Магнитная ссылка Размер: 1.46 GB Раздают: 106 Качают: 20 Добавлен: 2018-10-11 07:35:01
Чёрный 47-й / Black '47 (2018) WEB-DLRip | HDrezka Studio

Чёрный 47-й / Black '47

Страна: Ирландия  Люксембург
Производство: Fastnet Films, Irish Film Board, uMedia Family, Primeridian Entertainment
Год выпуска: 2018
Жанр:  боевик, драма
Продолжительность: 01:39:42
Режиссер: Лэнс Дэйли
Авторы сценария: Лэнс Дэйли, Юджин О’Брайэн, П.Дж. Диллон

В ролях: Хьюго Уивинг, Джеймс Фрешвилл, Стивен Ри, Фредди Фокс, Барри Кеоган, Мо Данфорд, Сара Грин, Джим Бродбент

Описание: Рейнджер армии Британской империи дезертирует и возвращается домой в Ирландию. Там он узнаёт, что когда он был в армии, в стране разразился ужасающий голод, который унёс жизнь его матери, а его брат был повешен за сопротивление сносу дома. В то же время английские джентльмены, за которых он проливал кровь в далёкой Азии, обогащаются вывозя скудный урожай пшеницы на продажу и обрекают многострадальный народ его родины на вымирание...

Перевод: Профессиональный (многоголосый, закадровый) | HDrezka Studio
Субтитры: русские на ирландскую речь (forced) | отдельным файлом, английский (хардсаб)

Качество: WEB-DLRip
Формат: AVI
Видео кодек: XviD
Аудио кодек: АС3
Видео: 704x288 (2.40:1), 24.000 fps, XviD build 73 ~1 704 kbps avg
Аудио: 48.0 kHz, AC3 Dolby Digital, 3/2 (L,C,R,l,r) + LFE ch, ~384 kbps
Формат субтитров: *SRT

Дата премьеры (мир): 16 февраля 2018

Релиз:


[+] Media Info
General
Complete name                  : Black.47.2018.WEB-DLRip.1.46Gb.MVO.DD.5.1.MegaPeerBlack.47.2018.WEB-DLRip.1.46Gb.MVO.DD.5.1.MegaPeer.avi
Format                         : AVI
Format/Info                    : Audio Video Interleave
File size                      : 1.46 GiB
Duration                       : 1 h 39 min
Overall bit rate               : 2 097 kb/s
Writing application            : VirtualDubMod 1.5.10.3 | (build 2550/release)
Writing library                : VirtualDubMod build 2550/release

Video
ID                             : 0
Format                         : MPEG-4 Visual
Format profile                 : Advanced Simple@L5
Format settings, BVOP          : 1
Format settings, QPel          : No
Format settings, GMC           : No warppoints
Format settings, Matrix        : Custom
Codec ID                       : XVID
Codec ID/Hint                  : XviD
Duration                       : 1 h 39 min
Bit rate                       : 1 704 kb/s
Width                          : 704 pixels
Height                         : 288 pixels
Display aspect ratio           : 2.40:1
Frame rate                     : 24.000 FPS
Color space                    : YUV
Chroma subsampling             : 4:2:0
Bit depth                      : 8 bits
Scan type                      : Progressive
Compression mode               : Lossy
Bits/(Pixel*Frame)             : 0.350
Stream size                    : 1.19 GiB (81%)
Writing library                : XviD 73

Audio
ID                             : 1
Format                         : AC-3
Format/Info                    : Audio Coding 3
Format settings, Endianness    : Big
Codec ID                       : 2000
Duration                       : 1 h 39 min
Bit rate mode                  : Constant
Bit rate                       : 384 kb/s
Channel(s)                     : 6 channels
Channel positions              : Front: L C R, Side: L R, LFE
Sampling rate                  : 48.0 kHz
Frame rate                     : 31.250 FPS (1536 SPF)
Bit depth                      : 16 bits
Compression mode               : Lossy
Stream size                    : 274 MiB (18%)
Alignment                      : Split accross interleaves
Interleave, duration           : 42  ms (1.00 video frame)
Interleave, preload duration   : 500  ms
Service kind                   : Complete Main



Скриншоты:
[+] Всего файлов в раздаче - 2:
Black.47.2018.WEB-DLRip.1.46Gb.MVO.DD.5.1.MegaPeer.avi1.46 GB
Black.47.2018.WEB-DLRip.1.46Gb.MVO.DD.5.1.MegaPeer.srt4.63 kB

Отзывы
Зарегистрируйтесь чтобы добавить комментарий.
Обратная связь
Copyleft ©