↑↓Torrent.by
Поиск
Логин: Регистрация
Пароль: Восстановить пароль
Загрузка...

Девица / Damsel (2018) WEB-DL 720p от OlLanDGroup | HDRezka Studio

Скачать devica-damsel-2018-web-dl-720p-ot-ollandgroup-hdrezka-studio.torrent
U Магнитная ссылка Размер: 3.63 GB Раздают: 79 Качают: 36 Добавлен: 2018-10-11 07:35:19
Девица / Damsel (2018) WEB-DL 720p от OlLanDGroup | HDRezka Studio

Девица / Damsel

Год выпуска: 2018
Страна: США
Производство: Strophic Productions Limited
Жанр:  Драма, комедия, вестерн

Режиссёр: Дэвид Зеллнер, Нэйтан Зеллнер
В ролях: Роберт Паттинсон, Миа Васиковска, Дэвид Зеллнер, Нэйтан Зеллнер, Роберт Форстер, Джозеф Биллинджир, Морган Ланд, Рэй Келлехер, Робин Адамс, Гэри Брукинс

Перевод: Профессиональный (многоголосый, закадровый) | [HDRezka Studio]
Субтитры: Русские (полные), Английские (полные)
Реклама: Отсутствует

Описание: Действие фильма разворачивается на Диком Западе в 1870 году. Молодой Самуэль Алебастр, богатый первопроходец, отправляется в отважное путешествие, чтобы жениться на прекрасной Пенелопе, любви всей своей жизни. В дороге компанию ему составляет пьяница Парсон Генри, выдающий себя за священника и миниатюрная лошадь по кличке Ириска. По мере того, как группа пересекает Дикий Запад, простое, на первый взгляд, путешествие становится более коварным и запутанным, демонстрируя непредсказуемость человеческих чувств и размывая границы между героем, злодеем и девицей.

Качество: WEB-DL 720p | iTunes Version | Damsel.2018.720p.WEB-DL.DD5.1.H264-FGT
Продолжительность: 01:53:25

Формат: MKV
Видео кодек: MPEG-4 AVC
Аудио кодек: AC3
Видео: 1280x530 (2.40:1), 23,976 fps, x264 ~4 003 kbps avg, 0.246 bit/pixel
Аудио #1: 48 kHz, AC3 Dolby Digital, 2 (L,R) ch, ~192.00 kbps avg | RUS (HDRezka Studio)
Аудио #2: 48 kHz, AC3 Dolby Digital, 3/2 (L,C,R,l,r) + LFE ch, ~384.00 kbps avg | ENG

Дата премьеры (мир): 23 января 2018
Дата премьеры (РФ): 13 сентября 2018, «Ракета Релизинг»

Релиз:


[+] MediaInfo

Общее
Уникальный идентификатор                 : 167860293311189022995788432975995450610 (0x7E48B76EEA003AEE8C5C1A72F7D5B4F2)
Полное имя                               : F:OlLanDGroupDamsel.2018.WEB-DL(720p).OlLanDGroup.mkv
Формат                                   : Matroska
Версия формата                           : Version 4 / Version 2
Размер файла                             : 3,63 Гбайт
Продолжительность                        : 1 ч. 53 м.
Общий поток                              : 4581 Кбит/сек
Название фильма                          : Damsel.2018   #TorpedoUK#
Дата кодирования                         : UTC 2018-10-10 14:52:50
Программа кодирования                    : mkvmerge v25.0.0 ('Prog Noir') 64-bit
Библиотека кодирования                   : libebml v1.3.6 + libmatroska v1.4.9
Обложка                                  : Yes
Attachments                              : small_cover.jpg / small_cover_land.jpg / cover.jpg / cover_land.jpg

Видео
Идентификатор                            : 1
Формат                                   : AVC
Формат/Информация                        : Advanced Video Codec
Профиль формата                          : Main@L3.1
Параметр CABAC формата                   : Нет
Параметр ReFrames формата                : 2 кадра
Идентификатор кодека                     : V_MPEG4/ISO/AVC
Продолжительность                        : 1 ч. 53 м.
Битрейт                                  : 4003 Кбит/сек
Ширина                                   : 1280 пикселей
Высота                                   : 530 пикселей
Соотношение сторон                       : 2,40:1
Режим частоты кадров                     : Постоянный
Частота кадров                           : 23,976 кадра/сек
Цветовое пространство                    : YUV
Субдискретизация насыщенности            : 4:2:0
Битовая глубина                          : 8 бит
Тип развёртки                            : Прогрессивная
Бит/(Пиксели*Кадры)                      : 0.246
Размер потока                            : 3,17 Гбайт (87%)
Заголовок                                : Damsel.2018.720p.WEB-DL.DD5.1.H264-FGT
Язык                                     : English
Default                                  : Да
Forced                                   : Нет
Цветовой диапазон                        : Limited
Основные цвета                           : BT.709
Характеристики трансфера                 : BT.709
Коэффициенты матрицы                     : BT.709

Аудио #1
Идентификатор                            : 2
Формат                                   : AC-3
Формат/Информация                        : Audio Coding 3
Расширение режима                        : CM (complete main)
Параметр Endianness формата              : Big
Идентификатор кодека                     : A_AC3
Продолжительность                        : 1 ч. 53 м.
Вид битрейта                             : Постоянный
Битрейт                                  : 192 Кбит/сек
Каналы                                   : 2 канала
Расположение каналов                     : Front: L R
Частота                                  : 48,0 КГц
Частота кадров                           : 31,250 кадров/сек (1536 spf)
Битовая глубина                          : 16 бит
Метод сжатия                             : С потерями
Задержка видео                           : -42 мс.
Размер потока                            : 156 Мбайт (4%)
Заголовок                                : MVO [HDRezka Studio]
Язык                                     : Russian
Default                                  : Нет
Forced                                   : Нет

Аудио #2
Идентификатор                            : 3
Формат                                   : AC-3
Формат/Информация                        : Audio Coding 3
Расширение режима                        : CM (complete main)
Параметр Endianness формата              : Big
Идентификатор кодека                     : A_AC3
Продолжительность                        : 1 ч. 53 м.
Вид битрейта                             : Постоянный
Битрейт                                  : 384 Кбит/сек
Каналы                                   : 6 каналов
Расположение каналов                     : Front: L C R, Side: L R, LFE
Частота                                  : 48,0 КГц
Частота кадров                           : 31,250 кадров/сек (1536 spf)
Битовая глубина                          : 16 бит
Метод сжатия                             : С потерями
Задержка видео                           : -42 мс.
Размер потока                            : 312 Мбайт (8%)
Заголовок                                : [Original]
Язык                                     : English
Default                                  : Нет
Forced                                   : Нет

Текст #1
Идентификатор                            : 4
Формат                                   : UTF-8
Идентификатор кодека                     : S_TEXT/UTF8
Идентификатор кодека/Информация          : UTF-8 Plain Text
Продолжительность                        : 1 ч. 46 м.
Битрейт                                  : 51 бит/сек
Count of elements                        : 898
Размер потока                            : 40,7 Кбайт (0%)
Заголовок                                : Full
Язык                                     : Russian
Default                                  : Нет
Forced                                   : Нет

Текст #2
Идентификатор                            : 5
Формат                                   : UTF-8
Идентификатор кодека                     : S_TEXT/UTF8
Идентификатор кодека/Информация          : UTF-8 Plain Text
Продолжительность                        : 1 ч. 50 м.
Битрейт                                  : 33 бит/сек
Count of elements                        : 917
Размер потока                            : 27,2 Кбайт (0%)
Заголовок                                : Full
Язык                                     : English
Default                                  : Нет
Forced                                   : Нет

Меню
00:00:00.000                             : en:1
00:08:22.000                             : en:2
00:18:49.000                             : en:3
00:32:45.000                             : en:4
00:40:56.000                             : en:5
00:49:50.000                             : en:6
01:01:32.000                             : en:7
01:10:58.000                             : en:8
01:20:05.000                             : en:9
01:33:10.000                             : en:10
01:43:49.000                             : en:11
01:51:11.000                             : en:12



Скриншоты:
[+] Всего файлов в раздаче - 1:
Damsel.2018.WEB-DL(720p).OlLanDGroup.mkv3.63 GB

Текущая раздача:
ДатаКомментарии    РазмерПиры
2018-10-11 U Девица / Damsel (2018) WEB-DL 720p от OlLanDGroup | HDRezka Studio 3.63 GB ↑ 79 ↓ 36

Похожие раздачи по запросу - девица:
2018-10-11 U Девица / Damsel (2018) WEB-DLRip от MegaPeer | HDRezka Studio 1.30 GB ↑ 94 ↓ 23
2018-09-24 U Девица / Девица в беде / Damsell (2018) WEBRip | L1 807.52 MB ↑ 67 ↓ 22
2018-09-11 U Девица / Damsel (2018) WEBRip 720p | L2 2.65 GB ↑ 81 ↓ 18
2018-09-11 U Девица / Damsel (2018) WEBRip | L2 1.48 GB ↑ 177 ↓ 50

Отзывы
Зарегистрируйтесь чтобы добавить комментарий.
Обратная связь
Copyleft ©