↑↓Torrent.by
Поиск
Логин: Регистрация
Пароль: Восстановить пароль
Загрузка...

Лето 84 / Summer of 84 (2018) BDRip 1080p | HDrezka Studio

Скачать leto-84-summer-of-2018-bdrip-1080p-hdrezka-studio.torrent
U Магнитная ссылка Размер: 8.21 GB Раздают: 98 Качают: 50 Добавлен: 2018-10-11 12:09:15
Лето 84 / Summer of 84 (2018) BDRip 1080p | HDrezka Studio

Название: Лето 84
Оригинальное название: Summer of 84
Год выхода: 2018
Жанр: Ужасы, триллер, драма, детектив
Режиссер: Франсуа Симар, Анук Висселль, Йоанн-Карл Висселль
В ролях: Грэм Верчир, Джуда Льюис, Калеб Эмери, Кори Грютер-Эндрю, Тиера Сковбай, Рич Соммер, Джейсон Грей-Стенфорд, Шона Йоханнесен, Марк Брэндон, Дж. Алекс Бринсон

О фильме:
Четверо 15-летних друзей проводят лето 1984 года за необычным занятием: они вычисляют серийного убийцу, несколько лет подряд орудующего в округе. Все улики ведут к соседскому дому, где живёт уважаемый офицер полиции.

 
Страна: Канада, США
Студия: Brightlight Pictures, Gunpowder & Sky
Продолжительность: 01:45:36
Перевод: Профессиональный (многоголосый, закадровый) | HDrezka Studio

Файл
Кодек: H.264
Качество: BDRip 1080p
Видео: AVC/H.264, 1920x804, ~9238 Кbps, 23.976 fps
Звук:
Аудио 1: AC3, 6 ch, 384 Kbps - Русский
Аудио 2: DTS, 6 ch, 1509 Kbps - Английский
Субтитры: Русские, английские

Семпл


[+] Доп. инфо
Дорожка №1 получена путем наложения выделенных фраз и диалогов из перевода HDRezka studio на центр оригинальной английской дорожки. спасибо karasidi



[+] Mediainfo
Общее
Уникальный идентификатор                 : 85472834617507934943430593151738236314 (0x404D781B02C1D7B0582A732E042ECD9A)
Полное имя                               : Summer of_84.2018.BDRip.1080p.W.mkv
Формат                                   : Matroska
Версия формата                           : Version 4
Размер файла                             : 8,21 Гбайт
Продолжительность                        : 1 ч. 45 м.
Общий поток                              : 11,1 Мбит/сек
Название фильма                          : Summer of_84.2018.BDRip.1080p.W
Дата кодирования                         : UTC 2018-10-10 21:06:12
Программа кодирования                    : mkvmerge v23.0.0 ('The Bride Said No') 64-bit
Библиотека кодирования                   : libebml v1.3.6 + libmatroska v1.4.9

Видео
Идентификатор                            : 1
Формат                                   : AVC
Формат/Информация                        : Advanced Video Codec
Профиль формата                          : High@L4.1
Настройки формата                        : CABAC / 5 Ref Frames
Параметр CABAC формата                   : Да
Параметр RefFrames формата               : 5 кадров
Идентификатор кодека                     : V_MPEG4/ISO/AVC
Продолжительность                        : 1 ч. 45 м.
Битрейт                                  : 9238 Кбит/сек
Ширина                                   : 1920 пикселей
Высота                                   : 804 пикселя
Соотношение сторон                       : 2,40:1
Режим частоты кадров                     : Постоянный
Частота кадров                           : 23,976 (23976/1000) кадра/сек
Цветовое пространство                    : YUV
Субдискретизация насыщенности            : 4:2:0
Битовая глубина                          : 8 бит
Тип развёртки                            : Прогрессивная
Бит/(Пиксели*Кадры)                      : 0.250
Размер потока                            : 6,81 Гбайт (83%)
Заголовок                                : rip by -=walledol=-
Библиотека кодирования                   : x264 core 157 r2935 545de2f
Настройки программы                      : cabac=1 / ref=5 / deblock=1:-3:-3 / analyse=0x3:0x133 / me=umh / subme=11 / psy=1 / psy_rd=1.02:0.12 / mixed_ref=1 / me_range=32 / chroma_me=1 / trellis=2 / 8x8dct=1 / cqm=0 / deadzone=21,11 / fast_pskip=0 / chroma_qp_offset=-3 / threads=12 / lookahead_threads=3 / sliced_threads=0 / nr=0 / decimate=1 / interlaced=0 / bluray_compat=0 / constrained_intra=0 / bframes=10 / b_pyramid=2 / b_adapt=2 / b_bias=0 / direct=3 / weightb=1 / open_gop=0 / weightp=2 / keyint=240 / keyint_min=23 / scenecut=40 / intra_refresh=0 / rc=2pass / mbtree=0 / bitrate=9238 / ratetol=1.0 / qcomp=0.60 / qpmin=0 / qpmax=69 / qpstep=4 / cplxblur=20.0 / qblur=0.5 / ip_ratio=1.40 / pb_ratio=1.30 / aq=3:0.85
Язык                                     : English
Default                                  : Да
Forced                                   : Нет

Аудио #1
Идентификатор                            : 2
Формат                                   : AC-3
Формат/Информация                        : Audio Coding 3
Коммерческое название                    : Dolby Digital
Идентификатор кодека                     : A_AC3
Продолжительность                        : 1 ч. 45 м.
Вид битрейта                             : Постоянный
Битрейт                                  : 384 Кбит/сек
Каналы                                   : 6 каналов
Channel layout                           : L R C LFE Ls Rs
Частота                                  : 48,0 КГц
Частота кадров                           : 31,250 кадров/сек (1536 SPF)
Битовая глубина                          : 16 бит
Метод сжатия                             : С потерями
Размер потока                            : 290 Мбайт (3%)
Заголовок                                : MVO | HDrezka Studio
Язык                                     : Russian
ServiceKind                              : Complete Main
Default                                  : Да
Forced                                   : Нет

Аудио #2
Идентификатор                            : 3
Формат                                   : DTS
Формат/Информация                        : Digital Theater Systems
Идентификатор кодека                     : A_DTS
Продолжительность                        : 1 ч. 45 м.
Вид битрейта                             : Постоянный
Битрейт                                  : 1509 Кбит/сек
Каналы                                   : 6 каналов
Channel layout                           : C L R Ls Rs LFE
Частота                                  : 48,0 КГц
Частота кадров                           : 93,750 кадра/сек (512 SPF)
Битовая глубина                          : 16 бит
Метод сжатия                             : С потерями
Размер потока                            : 1,11 Гбайт (14%)
Язык                                     : English
Default                                  : Нет
Forced                                   : Нет

Текст #1
Идентификатор                            : 4
Формат                                   : UTF-8
Идентификатор кодека                     : S_TEXT/UTF8
Идентификатор кодека/Информация          : UTF-8 Plain Text
Продолжительность                        : 1 ч. 40 м.
Битрейт                                  : 99 бит/сек
ElementCount                             : 1604
Размер потока                            : 73,5 Кбайт (0%)
Заголовок                                : Full
Язык                                     : Russian
Default                                  : Нет
Forced                                   : Нет

Текст #2
Идентификатор                            : 5
Формат                                   : UTF-8
Идентификатор кодека                     : S_TEXT/UTF8
Идентификатор кодека/Информация          : UTF-8 Plain Text
Продолжительность                        : 1 ч. 40 м.
Битрейт                                  : 63 бит/сек
ElementCount                             : 1772
Размер потока                            : 47,0 Кбайт (0%)
Заголовок                                : Full
Язык                                     : English
Default                                  : Нет
Forced                                   : Нет

Меню
00:00:00.000                             : en:Chapter 1
00:20:01.200                             : en:Chapter 2
00:40:02.400                             : en:Chapter 3
01:00:04.601                             : en:Chapter 4
01:20:04.799                             : en:Chapter 5
01:30:06.401                             : en:Chapter 6
01:41:03.057                             : en:Chapter 7
01:45:36.330                             : en:Chapter 8



Скриншоты:
[+] Всего файлов в раздаче - 1:
Summer of_84.2018.BDRip.1080p.W.mkv8.21 GB

Текущая раздача:
ДатаКомментарии    РазмерПиры
2018-10-11 U Лето 84 / Summer of 84 (2018) BDRip 1080p | HDrezka Studio 8.21 GB ↑ 98 ↓ 50

Показать еще раздачи по запросу лето:
2018-10-12 U Лето 84 / Summer of 84 (2018) BDRip 720p | HDrezka Studio 1К4.83 GB ↑ 75 ↓ 29
2018-10-11 U Лето 84 / Summer of 84 (2018) BDRip от MegaPeer | HDrezka Studio 1.46 GB ↑ 153 ↓ 40
2018-07-31 U Лето (2018) WEB-DLRip от Scarabey | iTunes 795.99 MB ↑ 164 ↓ 21
2018-07-30 U Лето (2018) WEB-DLRip от Generalfilm | КПК | iTunes 488.30 MB ↑ 27 ↓ 8
2018-07-30 U Лето (2018) WEB-DLRip от Scarabey | iTunes 1К1.45 GB ↑ 363 ↓ 45
2018-07-29 U Лето (2018) WEB-DLRip от GeneralFilm | iTunes 746.78 MB ↑ 173 ↓ 50
2018-07-29 U Лето (2018) WEB-DLRip-AVC от ExKinoRay | iTunes 1.45 GB ↑ 148 ↓ 88

Отзывы
Зарегистрируйтесь чтобы добавить комментарий.
Обратная связь
Copyleft ©