↑↓Torrent.by
Поиск
Логин: Регистрация
Пароль: Восстановить пароль
Загрузка...

Константин: Город демонов / Constantine: City of Demons (2018) HDRip 1080p | ColdFilm

Скачать konstantin-gorod-demonov-constantine-city-of-demons-2018-hdrip-1080p-coldfilm.torrent
U Магнитная ссылка Размер: 2.95 GB Раздают: 130 Качают: 29 Добавлен: 2018-10-11 14:52:02
Константин: Город демонов / Constantine: City of Demons (2018) HDRip 1080p | ColdFilm

Название: Константин: Город демонов
Оригинальное название: Constantine: City of Demons
Год выпуска: 2018
Жанр:  Мультфильм, драма, ужасы, полнометражный
Режиссер: Даг Мерфи
В ролях: Мэтт Райан, Дэмиан О’Хейр, Лора Бэйли, Эмили О’Брайэн, Робин Аткин Даунс, Рэйчел Кимси, Джим Мескимен, Кевин Майкл Ричардсон, Рик Д. Вассерман

О фильме:
Жизнь экзорциста Джона Константина может закончится в любой момент. Его убивает не только пагубная привычка выкуривать по десятку сигарет в день, но и утомительная работа, ведь изгонять демонов из человеческого мира — дело непростое. Каждое новое столкновение с силами зла заставляет Джона вступать в схватку, где победу способны принести не только острый ум и знание врага, но и любимый дробовик.


Страна: США
Студия: DC Entertainment
Продолжительность: 01:30:37
Перевод: Любительский многоголосый закадровый [ColdFilm]

Файл
Кодек: x264 (AVC)
Качество: WEBRip 1080p
Видео: ~ 4500 Кбит/с, 1920x1080, 23.976 fps
Звук: Русский / AAC / 2.0 / 192 kbs

Релиз:


[+] MI
General
Unique ID                   : 190704870272028464656475938632971082047 (0x8F786C097C4E2ED0835BA0D44F60593F)
Complete name               : Constantine.City.of.Demons.1080p.ColdFilm.mkv
Format                      : Matroska
Format version              : Version 2
File size                   : 2.95 GiB
Duration                    : 1 h 30 min
Overall bit rate            : 4 654 kb/s
Movie name                  : EVO
Encoded date                : UTC 2018-10-08 20:19:20 / UTC 2018-10-08 12:47:40
Writing application         : mkvmerge v3.3.0 ('Language') built on Mar 24 2010 14:59:24
Writing library             : libebml v0.8.0 + libmatroska v0.9.0 / Lavf54.63.104

Video
ID                          : 1
Format                      : AVC
Format/Info                 : Advanced Video Codec
Format profile              : Main@L4
Format settings             : CABAC / 1 Ref Frames
Format settings, CABAC      : Yes
Format settings, ReFrames   : 1 frame
Codec ID                    : V_MPEG4/ISO/AVC
Duration                    : 1 h 30 min
Bit rate                    : 4 500 kb/s
Width                       : 1 920 pixels
Height                      : 1 080 pixels
Display aspect ratio        : 16:9
Frame rate mode             : Constant
Frame rate                  : 23.976 (24000/1001) FPS
Color space                 : YUV
Chroma subsampling          : 4:2:0
Bit depth                   : 8 bits
Scan type                   : Progressive
Bits/(Pixel*Frame)          : 0.091
Stream size                 : 2.77 GiB (94%)
Writing library             : x264 core 129
Default                     : No
Forced                      : No

Audio
ID                          : 2
Format                      : AC-3
Format/Info                 : Audio Coding 3
Codec ID                    : A_AC3
Duration                    : 1 h 30 min
Bit rate mode               : Constant
Bit rate                    : 192 kb/s
Channel(s)                  : 2 channels
Channel positions           : Front: L R
Sampling rate               : 48.0 kHz
Frame rate                  : 31.250 FPS (1536 SPF)
Bit depth                   : 16 bits
Compression mode            : Lossy
Stream size                 : 124 MiB (4%)
Service kind                : Complete Main
Default                     : Yes
Forced                      : No




Скриншоты:
[+] Всего файлов в раздаче - 1:
Constantine.City.of.Demons.1080p.ColdFilm.mkv2.95 GB

Текущая раздача:
ДатаКомментарии    РазмерПиры
2018-10-11 U Константин: Город демонов / Constantine: City of Demons (2018) HDRip 1080p | ColdFilm 2.95 GB ↑ 130 ↓ 29

Показать еще раздачи по запросу константин:
2018-10-12 U Константин: Город демонов / Constantine: City of Demons (2018) HDRip 720p | ColdFilm 2.00 GB ↑ 61 ↓ 17
2018-10-12 U Константин: Город демонов / Constantine: City of Demons (2018) HDRip | ColdFilm 802.08 MB ↑ 88 ↓ 11
2018-09-11 U Калбазов Константин - Фаворит 4. Полководец (2018) MP3 473.33 MB ↑ 47 ↓ 5
2018-09-06 U Калбазов Константин - Сборник произведений [47 книг] (2012-2018) FB2 69.53 MB ↑ 74 ↓ 8
2018-08-26 U Константин Никольский - Любимые песни.RU (2006) MP3 1К165.69 MB ↑ 199 ↓ 26
2018-08-16 U Калбазов Константин - Сборник произведений [46 книг] (2012-2018) FB2 68.38 MB ↑ 136 ↓ 72
2018-08-05 U Константин Станюкович - Собрание сочинений в 10 томах (1977) FB2 8.27 MB ↑ 157 ↓ 8

Отзывы
Зарегистрируйтесь чтобы добавить комментарий.
Обратная связь
Copyleft ©