↑↓Torrent.by
Поиск
Логин: Регистрация
Пароль: Восстановить пароль
Загрузка...

Временные трудности (2017) WEB-DL 1080p

Скачать vremennye-trudnosti-2017-web-dl-1080p.torrent
U Магнитная ссылка Размер: 3.21 GB Раздают: 979 Качают: 295 Добавлен: 2018-10-14 10:12:47
Временные трудности (2017) WEB-DL 1080p

Название: Временные трудности
Год выхода: 2017
Жанр:  Драма, Мелодрама
Режиссер: Михаил Расходников
Продюсер: Георгий Малков, Владимир Поляков, Михаил Кучмент
Актеры: Иван Охлобыстин, Риналь Мухаметов, Виктория Соловьёва, Ян Цапник, Илья Рязанов, Ирина Пегова, Ирина Маликова, Николай Ковбас

Описание:
У Саши Ковалёва была врожденная болезнь. Отец мальчика выбрал, как ему казалось, единственно правильный способ поставить сына на ноги — относиться к нему как к здоровому человеку. «Ты не больной — у тебя временные трудности». Поесть, одеться, спуститься и подняться по лестнице подъезда — каждый день у ребенка уходили часы на то, чтобы справиться с простыми бытовыми задачами. В школе — издевательства сверстников. И помощи ждать было не от кого. Мальчик справился с болезнью, но возненавидел отца. Окончив школу, Саша уехал из дома и прекратил всякое общение с отцом. За 15 лет он стал лучшим бизнес-консультантом страны, который вывел из кризиса сотни бизнесов. «У вас не кризис — у вас временные трудности» — говорил своим клиентам прошедший тяжелый путь становления Александр. Но однажды новый заказ дает ему неожиданную возможность поквитаться с отцом.

Возраст: 12+ (зрителям, достигшим 12 лет)
Дата российской премьеры: 13 сентября 2018, «Централ Партнершип»

Производство: Россия, Enjoy Movies
Продолжительность: 01:23:25
Перевод: Не требуется (русский)
Субтитры: Отсутствуют

Файл
Качество видео: WEB-DL 1080p
Видео: AVC/H.264, 1920x800 (2.40:1), 5007 kbps
Аудио: АС3, 6 ch, 48 kHz, 384 Kbps | Русский


[+] Знаете ли вы, что...
Фильм основан на реальной истории.

Фильм выиграл призы двух международных фестивалей: Гран-при на Oldenburg International Film Festival и Приз за лучший игровой фильм на Salento International Film Festival.

В рамках подготовки к своей роли Риналь Мухаметов посещал медико-реабилитационный центр заболеваний опорно-двигательного аппарата под руководством Валентина Дикуля. Там он общался с детьми с ДЦП, занимался на специальных тренажерах и перенимал специфическую пластику.

Специалист по заболеваниям опорно-двигательного аппарата Валентин Дикуль стал одним из консультантов фильма.



[+] M/I
Общее
Уникальный идентификатор                 : 251725871436561483012114940618121704708 (0xBD60A3ACF1A39EBD817E831BAAF87504)
Полное имя                               : D:Временные.трудности.2017.WEB-DL.[1080p].NNMClub.mkv
Формат                                   : Matroska
Версия формата                           : Version 2
Размер файла                             : 3,21 Гбайт
Продолжительность                        : 1 ч. 23 м.
Общий поток                              : 5501 Кбит/сек
Название фильма                          : Временные.трудности.2017.WEB-DL.[1080p].NNMClub
Дата кодирования                         : UTC 2018-10-13 10:16:31
Программа кодирования                    : mkvmerge v8.3.0 ('Over the Horizon') 64bit
Библиотека кодирования                   : libebml v1.3.1 + libmatroska v1.4.2

Видео
Идентификатор                            : 1
Формат                                   : AVC
Формат/Информация                        : Advanced Video Codec
Профиль формата                          : High@L4
Настройки формата                        : CABAC / 4 Ref Frames
Параметр CABAC формата                   : Да
Параметр RefFrames формата               : 4 кадра
Идентификатор кодека                     : V_MPEG4/ISO/AVC
Продолжительность                        : 1 ч. 23 м.
Битрейт                                  : 5007 Кбит/сек
Ширина                                   : 1920 пикселей
Высота                                   : 800 пикселей
Соотношение сторон                       : 2,40:1
Режим частоты кадров                     : Постоянный
Частота кадров                           : 24,000 кадра/сек
Цветовое пространство                    : YUV
Субдискретизация насыщенности            : 4:2:0
Битовая глубина                          : 8 бит
Тип развёртки                            : Прогрессивная
Бит/(Пиксели*Кадры)                      : 0.136
Размер потока                            : 2,92 Гбайт (91%)
Язык                                     : Russian
Default                                  : Да
Forced                                   : Нет

Аудио
Идентификатор                            : 2
Формат                                   : AC-3
Формат/Информация                        : Audio Coding 3
Коммерческое название                    : Dolby Digital
Идентификатор кодека                     : A_AC3
Продолжительность                        : 1 ч. 23 м.
Вид битрейта                             : Постоянный
Битрейт                                  : 384 Кбит/сек
Каналы                                   : 6 каналов
Channel layout                           : L R C LFE Ls Rs
Частота                                  : 48,0 КГц
Частота кадров                           : 31,250 кадров/сек (1536 SPF)
Битовая глубина                          : 16 бит
Метод сжатия                             : С потерями
Размер потока                            : 229 Мбайт (7%)
Язык                                     : Russian
ServiceKind                       : Complete Main
Default                                  : Да
Forced                                   : Нет



Скриншоты:
[+] Всего файлов в раздаче - 1:
Временные.трудности.2017.WEB-DL.[1080p].NNMClub.mkv3.21 GB

Текущая раздача:
ДатаКомментарии    РазмерПиры
2018-10-14 U Временные трудности (2017) WEB-DL 1080p 3.21 GB ↑ 979 ↓ 295

Похожие раздачи по запросу - временные:
2018-10-15 U Временные трудности (2018) WEB-DLRip от Scarabey 1.39 GB ↑ 297 ↓ 93
2018-10-14 U Временные трудности (2017) WEB-DLRip от GeneralFilm 744.69 MB ↑ 155 ↓ 64
2018-10-14 U Временные трудности (2017) WEB-DLRip 1.37 GB ↑ 893 ↓ 196
2018-07-17 U Мстители Гримм: Временные войны / Avengers Grimm: Time Wars (2018) BDRip 1080p | L2 6.67 GB ↑ 110 ↓ 64
2018-05-16 U Мстители Гримм: Временные войны / Avengers Grimm: Time Wars (2018) WEBRip 720p | L2 1.96 GB ↑ 49 ↓ 43
2018-05-16 U Мстители Гримм: Временные войны / Avengers Grimm: Time Wars (2018) WEBRip | L2 1.23 GB ↑ 98 ↓ 39

Отзывы
Зарегистрируйтесь чтобы добавить комментарий.
Обратная связь
Copyleft ©