↑↓Torrent.by
Поиск
Логин: Регистрация
Пароль: Восстановить пароль
Загрузка...

Временные трудности (2017) WEB-DLRip

Скачать vremennye-trudnosti-2017-web-dlrip.torrent
U Магнитная ссылка Размер: 1.37 GB Раздают: 893 Качают: 196 Добавлен: 2018-10-14 10:12:55
Временные трудности (2017) WEB-DLRip

Название: Временные трудности
Год выхода: 2017
Жанр:  Драма, Мелодрама
Режиссер: Михаил Расходников
Продюсер: Георгий Малков, Владимир Поляков, Михаил Кучмент
Актеры: Иван Охлобыстин, Риналь Мухаметов, Виктория Соловьёва, Ян Цапник, Илья Рязанов, Ирина Пегова, Ирина Маликова, Николай Ковбас

Описание:
У Саши Ковалёва была врожденная болезнь. Отец мальчика выбрал, как ему казалось, единственно правильный способ поставить сына на ноги — относиться к нему как к здоровому человеку. «Ты не больной — у тебя временные трудности». Поесть, одеться, спуститься и подняться по лестнице подъезда — каждый день у ребенка уходили часы на то, чтобы справиться с простыми бытовыми задачами. В школе — издевательства сверстников. И помощи ждать было не от кого. Мальчик справился с болезнью, но возненавидел отца. Окончив школу, Саша уехал из дома и прекратил всякое общение с отцом. За 15 лет он стал лучшим бизнес-консультантом страны, который вывел из кризиса сотни бизнесов. «У вас не кризис — у вас временные трудности» — говорил своим клиентам прошедший тяжелый путь становления Александр. Но однажды новый заказ дает ему неожиданную возможность поквитаться с отцом.

Возраст: 12+ (зрителям, достигшим 12 лет)
Дата российской премьеры: 13 сентября 2018, «Централ Партнершип»

Производство: Россия, Enjoy Movies
Продолжительность: 01:23:25
Перевод: Не требуется (русский)
Субтитры: Отсутствуют

Файл
Качество видео: WEB-DLRip
Видео: XviD, 720x304 (2.35:1), 24.000 fps, 1 958 Kbps
Аудио: AC-3, 6 ch, 384 Kbps (Русский)


[+] Знаете ли вы, что...
Фильм основан на реальной истории.

Фильм выиграл призы двух международных фестивалей: Гран-при на Oldenburg International Film Festival и Приз за лучший игровой фильм на Salento International Film Festival.

В рамках подготовки к своей роли Риналь Мухаметов посещал медико-реабилитационный центр заболеваний опорно-двигательного аппарата под руководством Валентина Дикуля. Там он общался с детьми с ДЦП, занимался на специальных тренажерах и перенимал специфическую пластику.

Специалист по заболеваниям опорно-двигательного аппарата Валентин Дикуль стал одним из консультантов фильма.



[+] M/I
General
Complete name               : Vremennye.trudnosti.2017.WEB-DLRip.XviD.NNMClub.avi
Format                      : AVI
Format/Info                 : Audio Video Interleave
File size                   : 1.37 GiB
Duration                    : 1 h 23 min
Overall bit rate            : 2 351 kb/s
Writing application         : Lavf58.12.100
Writing library             : VirtualDub build 35491/release

Video
ID                          : 0
Format                      : MPEG-4 Visual
Format profile              : Advanced Simple@L5
Format settings             : BVOP2
Format settings, BVOP       : 2
Format settings, QPel       : No
Format settings, GMC        : No warppoints
Format settings, Matrix     : Default (MPEG)
Codec ID                    : XVID
Codec ID/Hint               : XviD
Duration                    : 1 h 23 min
Bit rate                    : 1 958 kb/s
Width                       : 720 pixels
Height                      : 304 pixels
Display aspect ratio        : 2.35:1
Frame rate                  : 24.000 FPS
Color space                 : YUV
Chroma subsampling          : 4:2:0
Bit depth                   : 8 bits
Scan type                   : Progressive
Compression mode            : Lossy
Bits/(Pixel*Frame)          : 0.373
Stream size                 : 1.14 GiB (83%)
Writing library             : XviD 67

Audio
ID                          : 1
Format                      : AC-3
Format/Info                 : Audio Coding 3
Commercial name             : Dolby Digital
Codec ID                    : 2000
Duration                    : 1 h 23 min
Bit rate mode               : Constant
Bit rate                    : 384 kb/s
Channel(s)                  : 6 channels
Channel layout              : L R C LFE Ls Rs
Sampling rate               : 48.0 kHz
Frame rate                  : 31.250 FPS (1536 SPF)
Bit depth                   : 16 bits
Compression mode            : Lossy
Stream size                 : 229 MiB (16%)
Alignment                   : Aligned on interleaves
Interleave, duration        : 42  ms (1.00 video frame)
Interleave, preload duratio : 512  ms
Service kind                : Complete Main



Скриншоты:
[+] Всего файлов в раздаче - 1:
Vremennye.trudnosti.2017.WEB-DLRip.XviD.NNMClub.avi1.37 GB

Текущая раздача:
ДатаКомментарии    РазмерПиры
2018-10-14 U Временные трудности (2017) WEB-DLRip 1.37 GB ↑ 893 ↓ 196

Похожие раздачи по запросу - временные:
2018-10-15 U Временные трудности (2018) WEB-DLRip от Scarabey 1.39 GB ↑ 296 ↓ 93
2018-10-14 U Временные трудности (2017) WEB-DLRip от GeneralFilm 744.69 MB ↑ 154 ↓ 64
2018-10-14 U Временные трудности (2017) WEB-DL 1080p 3.21 GB ↑ 979 ↓ 295
2018-07-17 U Мстители Гримм: Временные войны / Avengers Grimm: Time Wars (2018) BDRip 1080p | L2 6.67 GB ↑ 110 ↓ 64
2018-05-16 U Мстители Гримм: Временные войны / Avengers Grimm: Time Wars (2018) WEBRip 720p | L2 1.96 GB ↑ 49 ↓ 43
2018-05-16 U Мстители Гримм: Временные войны / Avengers Grimm: Time Wars (2018) WEBRip | L2 1.23 GB ↑ 98 ↓ 39

Отзывы
Зарегистрируйтесь чтобы добавить комментарий.
Обратная связь
Copyleft ©