↑↓Torrent.by
Поиск
Логин: Регистрация
Пароль: Восстановить пароль
Загрузка...

Временные трудности (2017) WEB-DLRip от GeneralFilm

Скачать vremennye-trudnosti-2017-web-dlrip-ot-generalfilm.torrent
U Магнитная ссылка Размер: 744.69 MB Раздают: 153 Качают: 64 Добавлен: 2018-10-14 10:14:39
Временные трудности (2017) WEB-DLRip от GeneralFilm

Информация о фильме
Название: Временные трудности
Год выхода: 2017
Жанр: Драма, Мелодрама
Режиссер: Михаил Расходников
В ролях: Иван Охлобыстин, Риналь Мухаметов, Виктория Соловьёва, Ян Цапник, Илья Рязанов, Ирина Пегова, Ирина Маликова, Николай Ковбас

О фильме:
У Саши Ковалёва была врожденная болезнь. Отец мальчика выбрал, как ему казалось, единственно правильный способ поставить сына на ноги — относиться к нему как к здоровому человеку. «Ты не больной — у тебя временные трудности». Поесть, одеться, спуститься и подняться по лестнице подъезда — каждый день у ребенка уходили часы на то, чтобы справиться с простыми бытовыми задачами. В школе — издевательства сверстников. И помощи ждать было не от кого. Мальчик справился с болезнью, но возненавидел отца. Окончив школу, Саша уехал из дома и прекратил всякое общение с отцом. За 15 лет он стал лучшим бизнес-консультантом страны, который вывел из кризиса сотни бизнесов. «У вас не кризис — у вас временные трудности» — говорил своим клиентам прошедший тяжелый путь становления Александр. Но однажды новый заказ дает ему неожиданную возможность поквитаться с отцом.

Страна: Россия
Студия: «Enjoy Movies»
Продолжительность: 01:23:25
Перевод: Не требуется
Субтитры: нет

Файл
Формат: avi
Качество: WEB-DLRip
Видео: XviD build 73, 720x304 (2.35:1), 24.000 fps, 1047 Kbps (0.199 bit/pixel)
Звук: 48.0 kHz, MP3, 2/0 ch, 192 kbps

Релиз:


[+] MediaInfo
General
Complete name               : D:RazdachiVremennye.Trudnosti.2017.XviD.745.mb.WEB-DLRip.GeneralFilm.avi
Format                      : AVI
Format/Info                 : Audio Video Interleave
File size                   : 745 MiB
Duration                    : 1 h 23 min
Overall bit rate            : 1 248 kb/s
Writing application         : VirtualDubMod 1.5.10.3 | www.virtualdub-fr.org || (build 2550/release)
Writing library             : VirtualDubMod build 2550/release

Video
ID                          : 0
Format                      : MPEG-4 Visual
Format profile              : Advanced Simple@L5
Format settings, BVOP       : 1
Format settings, QPel       : No
Format settings, GMC        : No warppoints
Format settings, Matrix     : Custom
Codec ID                    : XVID
Codec ID/Hint               : XviD
Duration                    : 1 h 23 min
Bit rate                    : 1 047 kb/s
Width                       : 720 pixels
Height                      : 304 pixels
Display aspect ratio        : 2.35:1
Frame rate                  : 24.000 FPS
Color space                 : YUV
Chroma subsampling          : 4:2:0
Bit depth                   : 8 bits
Scan type                   : Progressive
Compression mode            : Lossy
Bits/(Pixel*Frame)          : 0.199
Stream size                 : 625 MiB (84%)
Writing library             : XviD 73

Audio
ID                          : 1
Format                      : MPEG Audio
Format version              : Version 1
Format profile              : Layer 3
Codec ID                    : 55
Codec ID/Hint               : MP3
Duration                    : 1 h 23 min
Bit rate mode               : Constant
Bit rate                    : 192 kb/s
Channel(s)                  : 2 channels
Sampling rate               : 48.0 kHz
Compression mode            : Lossy
Stream size                 : 115 MiB (15%)
Alignment                   : Aligned on interleaves
Interleave, duration        : 42  ms (1.00 video frame)
Interleave, preload duratio : 504  ms
Writing library             : LAME3.99r
Encoding settings           : -m s -V 4 -q 0 -lowpass 18.6 -b 192



Скриншоты:
[+] Всего файлов в раздаче - 1:
Vremennye.Trudnosti.2017.XviD.745.mb.WEB-DLRip.GeneralFilm.avi744.69 MB

Текущая раздача:
ДатаКомментарии    РазмерПиры
2018-10-14 U Временные трудности (2017) WEB-DLRip от GeneralFilm 744.69 MB ↑ 153 ↓ 64

Похожие раздачи по запросу - временные:
2018-10-15 U Временные трудности (2018) WEB-DLRip от Scarabey 1.39 GB ↑ 294 ↓ 93
2018-10-14 U Временные трудности (2017) WEB-DLRip 1.37 GB ↑ 893 ↓ 196
2018-10-14 U Временные трудности (2017) WEB-DL 1080p 3.21 GB ↑ 979 ↓ 295
2018-07-17 U Мстители Гримм: Временные войны / Avengers Grimm: Time Wars (2018) BDRip 1080p | L2 6.67 GB ↑ 110 ↓ 64
2018-05-16 U Мстители Гримм: Временные войны / Avengers Grimm: Time Wars (2018) WEBRip 720p | L2 1.96 GB ↑ 49 ↓ 43
2018-05-16 U Мстители Гримм: Временные войны / Avengers Grimm: Time Wars (2018) WEBRip | L2 1.23 GB ↑ 98 ↓ 39

Отзывы
Зарегистрируйтесь чтобы добавить комментарий.
Обратная связь
Copyleft ©