↑↓Torrent.by
Поиск
Логин: Регистрация
Пароль: Восстановить пароль
Загрузка...

Счастья! Здоровья! (2018) WEB-DLRip от GeneralFilm | iTunes

Скачать schastya-zdorovya-2018-web-dlrip-ot-generalfilm-itunes.torrent
U Магнитная ссылка Размер: 1.46 GB Раздают: 105 Качают: 40 Добавлен: 2018-10-14 10:15:21
Счастья! Здоровья! (2018) WEB-DLRip от GeneralFilm | iTunes

Информация о фильме
Название: Счастья! Здоровья!
Год выхода: 2018
Жанр: Комедия
Режиссер: Марк Горобец, Арман Марутян, Леонид Марголин
В ролях: Зоя Бербер, Камиль Ларин, Марина Федункив, Сергей Аброскин, Наталья Рудова, Грант Тохатян, Даниил Вахрушев, Олег Верещагин, Дарья Пынзарь, Стася Милославская

О фильме:
Три влюблённые пары — татарская, армянская и русская — готовятся сыграть свадьбы. Но выясняется, что для Рината и Гузельки свадьба — это способ добыть деньги, чтобы вернуть дорогую скрипку, для отца Артура важнее всего, чтобы свадьба его сына и москвички-Юли прошла в Армении, а у Светы есть «скелет в шкафу» — её «бывший» Андрей в день свадьбы с Олегом вышел из тюрьмы. Зато гости отрываются от души, а у зрителей фильма «Счастья! Здоровья!» есть уникальная возможность побывать сразу на трёх свадьбах. Тосты и конкурсы, песни и танцы, поцелуи и… драки — что за свадьба без драки?! Это бомбически круто и нереально смешно. Три свадьбы, три пары — такие разные, такие непохожие. Но любовь объединяет, а гости от души желают: «Счастья! Здоровья!»

Страна: Россия
Студия: «Fresh Film»
Продолжительность: 01:23:52
Перевод: Не требуется | iTunes
Субтитры: нет

Файл
Формат: avi
Качество: WEB-DLRip
Видео: XviD build 73, 720x304 (2.35:1), 24.000 fps, 2091 Kbps (0.398 bit/pixel)
Звук: 48.0 kHz, AC3, 5/1 ch, 384 kbps

Релиз:


[+] MediaInfo
General
Complete name               : D:RazdachiSchastja.Zdorovija.2018.XviD.WEB-DLRip.GeneralFilm.avi
Format                      : AVI
Format/Info                 : Audio Video Interleave
File size                   : 1.46 GiB
Duration                    : 1 h 23 min
Overall bit rate            : 2 484 kb/s
Writing application         : VirtualDubMod 1.5.10.3 | www.virtualdub-fr.org || (build 2550/release)
Writing library             : VirtualDubMod build 2550/release

Video
ID                          : 0
Format                      : MPEG-4 Visual
Format profile              : Advanced Simple@L5
Format settings, BVOP       : 1
Format settings, QPel       : No
Format settings, GMC        : No warppoints
Format settings, Matrix     : Custom
Codec ID                    : XVID
Codec ID/Hint               : XviD
Duration                    : 1 h 23 min
Bit rate                    : 2 091 kb/s
Width                       : 720 pixels
Height                      : 304 pixels
Display aspect ratio        : 2.35:1
Frame rate                  : 24.000 FPS
Color space                 : YUV
Chroma subsampling          : 4:2:0
Bit depth                   : 8 bits
Scan type                   : Progressive
Compression mode            : Lossy
Bits/(Pixel*Frame)          : 0.398
Stream size                 : 1.22 GiB (84%)
Writing library             : XviD 73

Audio
ID                          : 1
Format                      : AC-3
Format/Info                 : Audio Coding 3
Format settings, Endianness : Big
Codec ID                    : 2000
Duration                    : 1 h 23 min
Bit rate mode               : Constant
Bit rate                    : 384 kb/s
Channel(s)                  : 6 channels
Channel positions           : Front: L C R, Side: L R, LFE
Sampling rate               : 48.0 kHz
Frame rate                  : 31.250 FPS (1536 SPF)
Bit depth                   : 16 bits
Compression mode            : Lossy
Stream size                 : 230 MiB (15%)
Alignment                   : Split accross interleaves
Interleave, duration        : 42  ms (1.00 video frame)
Interleave, preload duratio : 500  ms
Service kind                : Complete Main



Скриншоты:
[+] Всего файлов в раздаче - 1:
Schastja.Zdorovija.2018.XviD.WEB-DLRip.GeneralFilm.avi1.46 GB

Текущая раздача:
ДатаКомментарии    РазмерПиры
2018-10-14 U Счастья! Здоровья! (2018) WEB-DLRip от GeneralFilm | iTunes 1.46 GB ↑ 105 ↓ 40

Показать еще раздачи по запросу счастья:
2018-10-16 U Счастья! Здоровья! (2018) WEB-DLRip от Generalfilm | КПК | iTunes 1К318.54 MB ↑ 56 ↓ 5
2018-10-15 U Счастья! Здоровья! (2018) WEB-DLRip от Scarabey | iTunes 1.40 GB ↑ 95 ↓ 42
2018-10-14 U Счастья! Здоровья! (2018) WEB-DLRip от GeneralFilm | iTunes 1К745.69 MB ↑ 123 ↓ 36
2018-10-13 U Счастья! Здоровья! (2018) WEB-DLRip от MegaPeer | iTunes 747.03 MB ↑ 254 ↓ 49
2018-10-13 U Счастья! Здоровья! (2018) WEB-DLRip от MegaPeer | iTunes 1.46 GB ↑ 332 ↓ 62
2018-10-13 U Счастья! Здоровья! (2018) WEB-DL 1080p | iTunes 2.95 GB ↑ 789 ↓ 266
2018-10-13 U Счастья! Здоровья! (2018) WEB-DLRip | iTunes 1К1.37 GB ↑ 1140 ↓ 316

Отзывы
Зарегистрируйтесь чтобы добавить комментарий.
Обратная связь
Copyleft ©