↑↓Torrent.by
Поиск
Логин: Регистрация
Пароль: Восстановить пароль
Загрузка...

Изморозь (2018) WEB-DLRip от GeneralFilm

Скачать izmoroz-2018-web-dlrip-ot-generalfilm.torrent
U Магнитная ссылка Размер: 745.12 MB Раздают: 49 Качают: 9 Добавлен: 2018-10-17 05:41:46
Изморозь (2018) WEB-DLRip от GeneralFilm

Название: Изморозь
Год выпуска: 2018
Жанр:  Мелодрама
Режиссер: Валерий Цыбин
В ролях: Нина Гусева, Евгений Морозов, Антон Филипенко, Любава Грешнова, Татьяна Чернопятова, Артемий Падалка, Дмитрий Комов

О фильме:
Мужчины обходят вниманием робкую и тихую Олю. Мама, подруги, работа – вот и вся ее личная жизнь. Но однажды рядом с ней оказываются сразу двое мужчин! Иннокентий (Антон Филипенко) – обаятельный красавец. Он галантно ухаживает и помогает достать редкое лекарство для матери. А случайный знакомый Андрей (Евгений Морозов) – простой охранник в банке и отец-одиночка. Он спасает Ольгу от хулиганов в парке. Ольга влюбляется в Иннокентия, но в трудную минуту и Андрей оказывается рядом. Она и не подозревает, что у ее кавалеров есть общее прошлое…

Страна: Россия
Студия: Кинокомпания «Русское»
Продолжительность: 01:29:07
Перевод: Не требуется
Субтитры: нет

Файл
Формат: avi
Качество: WEB-DLRip
Видео: XviD build 73, 688x384 (16:9), 25.000 fps, 1031 Kbps (0.156 bit/pixel)
Звук: 48.0 kHz, MP3, 2/0 ch, 128 kbps

Релиз:


[+] MediaInfo
General
Complete name               : D:RazdachiIzmorozj.2017.XviD.WEB-DLRip.GeneralFilm.avi
Format                      : AVI
Format/Info                 : Audio Video Interleave
File size                   : 745 MiB
Duration                    : 1 h 29 min
Overall bit rate            : 1 169 kb/s
Writing application         : VirtualDubMod 1.5.10.3 | www.virtualdub-fr.org || (build 2550/release)
Writing library             : VirtualDubMod build 2550/release

Video
ID                          : 0
Format                      : MPEG-4 Visual
Format profile              : Advanced Simple@L5
Format settings, BVOP       : 1
Format settings, QPel       : No
Format settings, GMC        : No warppoints
Format settings, Matrix     : Custom
Codec ID                    : XVID
Codec ID/Hint               : XviD
Duration                    : 1 h 29 min
Bit rate                    : 1 031 kb/s
Width                       : 688 pixels
Height                      : 384 pixels
Display aspect ratio        : 16:9
Frame rate                  : 25.000 FPS
Color space                 : YUV
Chroma subsampling          : 4:2:0
Bit depth                   : 8 bits
Scan type                   : Progressive
Compression mode            : Lossy
Bits/(Pixel*Frame)          : 0.156
Stream size                 : 657 MiB (88%)
Writing library             : XviD 73

Audio
ID                          : 1
Format                      : MPEG Audio
Format version              : Version 1
Format profile              : Layer 3
Codec ID                    : 55
Codec ID/Hint               : MP3
Duration                    : 1 h 29 min
Bit rate mode               : Constant
Bit rate                    : 128 kb/s
Channel(s)                  : 2 channels
Sampling rate               : 48.0 kHz
Compression mode            : Lossy
Stream size                 : 81.6 MiB (11%)
Alignment                   : Aligned on interleaves
Interleave, duration        : 40  ms (1.00 video frame)
Interleave, preload duratio : 504  ms
Writing library             : LAME3.99r
Encoding settings           : -m s -V 4 -q 2 -lowpass 17 -b 128



Скриншоты:
[+] Всего файлов в раздаче - 1:
Izmorozj.2017.XviD.WEB-DLRip.GeneralFilm.avi745.12 MB

Текущая раздача:
ДатаКомментарии    РазмерПиры
2018-10-17 U Изморозь (2018) WEB-DLRip от GeneralFilm 745.12 MB ↑ 49 ↓ 9

Похожие раздачи по запросу - изморозь:
2018-10-14 U Изморозь (2018) WEB-DLRip от Files-x 1.36 GB ↑ 372 ↓ 130
2013-10-05 U Изморозь - Дискография (2007-2013) MP3 849.58 MB ↑ 267 ↓ 65534

Отзывы
Зарегистрируйтесь чтобы добавить комментарий.
Обратная связь
Copyleft ©