↑↓Torrent.by
Поиск
Логин: Регистрация
Пароль: Восстановить пароль
Загрузка...

Уральские пельмени - Азбука Уральских Пельменей - Г (2018) WEBRip 720p

Скачать uralskie-pelmeni-azbuka-uralskih-pelmeney-g-2018-webrip-720p.torrent
U Магнитная ссылка Размер: 653.40 MB Раздают: 356 Качают: 94 Добавлен: 2018-10-18 16:55:54
Уральские пельмени - Азбука Уральских Пельменей - Г (2018) WEBRip 720p

Название: Уральские пельмени - Азбука Уральских Пельменей - Г
Год выхода: 2018
Жанр: ТВ-шоу, юмор, сатира, развлекательный
Режиссер: Анастастия Ширина, Леонид Коновалов
В ролях: Дмитрий Брекоткин, Сергей Ершов, Сергей Исаев, Сергей Калугин, Вячеслав Мясников, Александр Попов, Андрей Рожков, Дмитрий Соколов (V), Максим Ярица, Юлия Михалкова, Илана Юрьева, Ксения Корнева

О фильме: Шоу Уральских пельмений обожают и любят фанаты. Многие из них знают все шутки ребят от А до Я. Но они знают лишь те шутки, которые уже показывали по ТВ. Но сегодня мы представляем новый сборник миниатюр и скетчей. А еще в сборнике то, что осталось за кадром! Цикл выпусков с невошедшими миниатюрами и скетчами. А также самые смешные ляпы и оговорки!

Страна: Россия
Продолжительность: 01:11:56

Файл
Кодек: MPEG-4 AVC
Качество: WEBRip
Видео: 1280x720, 1172 Кбит/с, 25 fps
Звук: AAC-LC, 1 ch, 96 kb/s
[+] MediaInfo
General
Complete name               : Azbuka_Uralskih_Pelmenej_-_G_2018_720p.mkv
Format                      : Matroska
Format version              : Version 4 / Version 2
File size                   : 653 MiB
Duration                    : 1 h 11 min
Overall bit rate            : 1 270 kb/s
Encoded date                : UTC 2018-10-18 08:34:48
Writing application         : mkvmerge v10.0.0 ('To Drown In You') 32bit
Writing library             : libebml v1.3.4 + libmatroska v1.4.5

Video
ID                          : 1
Format                      : AVC
Format/Info                 : Advanced Video Codec
Format profile              : Main@L3.1
Format settings, CABAC      : Yes
Format settings, ReFrames   : 3 frames
Codec ID                    : V_MPEG4/ISO/AVC
Duration                    : 1 h 11 min
Bit rate                    : 1 172 kb/s
Width                       : 1 280 pixels
Height                      : 720 pixels
Display aspect ratio        : 16:9
Frame rate mode             : Constant
Frame rate                  : 25.000 FPS
Color space                 : YUV
Chroma subsampling          : 4:2:0
Bit depth                   : 8 bits
Scan type                   : Progressive
Bits/(Pixel*Frame)          : 0.051
Stream size                 : 603 MiB (92%)
Default                     : Yes
Forced                      : No
Color range                 : Limited
Color primaries             : BT.709
Transfer characteristics    : BT.709
Matrix coefficients         : BT.709

Audio
ID                          : 2
Format                      : AAC
Format/Info                 : Advanced Audio Codec
Format profile              : LC
Codec ID                    : A_AAC
Duration                    : 1 h 11 min
Bit rate                    : 96.0 kb/s
Channel(s)                  : 1 channel
Channel positions           : Front: C
Sampling rate               : 44.1 kHz
Frame rate                  : 43.066 FPS (1024 spf)
Compression mode            : Lossy
Stream size                 : 49.4 MiB (8%)
Default                     : Yes
Forced                      : No




Скриншоты:
[+] Всего файлов в раздаче - 1:
Azbuka_Uralskih_Pelmenej_-_G_2018_720p.mkv653.40 MB

Текущая раздача:
ДатаКомментарии    РазмерПиры
2018-10-18 U Уральские пельмени - Азбука Уральских Пельменей - Г (2018) WEBRip 720p 653.40 MB ↑ 356 ↓ 94

Показать еще раздачи по запросу уральские:
2018-10-21 U Уральские Пельмени - Азбука Уральских Пельменей - Г (2018) WEBRip от music80 1.11 GB ↑ 95 ↓ 47
2018-10-21 U Уральские Пельмени - Утро в сосновом бреду (2018) WEBRip 1080p от music80 1К2.16 GB ↑ 171 ↓ 53
2018-10-20 U Уральские Пельмени - Утро в сосновом бреду [эфир от 19.10] (2018) WEBRip 720p 1.06 GB ↑ 312 ↓ 88
2018-10-20 U Уральские Пельмени - Утро в сосновом бреду [эфир от 19.10] (2018) SATRip 924.01 MB ↑ 635 ↓ 121
2018-06-18 U Уральские пельмени - Азбука Уральских Пельменей - Б (2018) WEBRip 720p 652.39 MB ↑ 191 ↓ 51
2018-06-16 U Уральские пельмени - Азбука Уральских Пельменей - В (2018) WEBRip 720p 1.06 GB ↑ 407 ↓ 90
2018-06-16 U Уральские пельмени - Азбука Уральских Пельменей - В (2018) WEBRip 1080p 2.13 GB ↑ 170 ↓ 105

Отзывы
Зарегистрируйтесь чтобы добавить комментарий.
Обратная связь
Copyleft ©