↑↓Torrent.by
Поиск
Логин: Регистрация
Пароль: Восстановить пароль
Загрузка...

Килиманджара (2018) WEB-DLRip-AVC от OlLanDGroup

Скачать kilimandzhara-2018-web-dlrip-avc-ot-ollandgroup.torrent
U Магнитная ссылка Размер: 1.04 GB Раздают: 439 Качают: 174 Добавлен: 2018-10-20 07:41:52
Килиманджара (2018) WEB-DLRip-AVC от OlLanDGroup

Килиманджара

Год выпуска: 2018
Страна: Россия
Производство: ПЦ «Среда», «Планета парни из Баку филмс»
Жанр:  Комедия, приключения

Режиссёр: Катерина Телегина
В ролях: Павел Прилучный, Ирина Старшенбаум, Максим Виторган, Таир Иманов, Тимофей Трибунцев, Варвара Бородина, Мария Смольникова, Артем Сучков, Мурад Мамедов

Перевод: Не требуется
Субтитры: Нет
Реклама: Отсутствует

Описание: У москвички Маруси в день свадьбы исчезает жених. Но девушка не собирается этого так оставлять. Она решительно настроена отыскать его, а для этого собирает команду друзей, с которыми отправляется в Баку, на родину своего суженого. Но никто из друзей и предположить не мог, что впереди их ждет множество приключений, которые отразятся на жизни каждого из них.

Качество: WEB-DLRip-AVC
Продолжительность: 01:12:45

Формат: MKV
Видео кодек: MPEG-4 AVC
Аудио кодек: AC3
Видео: 1024x426 (2.40:1), 25,000 fps, x264 ~1 863 kbps avg, 0.171 bit/pixel
Аудио: 48 kHz, AC3 Dolby Digital, 2 (L,R) ch, ~192.00 kbps avg | RUS (iTunes)

Дата премьеры (мир):
Дата премьеры (РФ): 19 июля 2018, «Каропрокат»

Релиз: Rip by:


[+] MediaInfo

Общее
Уникальный идентификатор                 : 249459431443336788097187205019898746556 (0xBBAC238E780D5648A8DC954580A016BC)
Полное имя                               : F:OlLanDGroupKilimandzhara.2018.WEB-DLRip(AVC).OlLanDGroup.mkv
Формат                                   : Matroska
Версия формата                           : Version 4 / Version 2
Размер файла                             : 1,04 Гбайт
Продолжительность                        : 1 ч. 12 м.
Общий поток                              : 2055 Кбит/сек
Название фильма                          : Kilimandzhara.2018    #TorpedoUK#
Дата кодирования                         : UTC 2018-10-20 01:14:37
Программа кодирования                    : mkvmerge v25.0.0 ('Prog Noir') 64-bit
Библиотека кодирования                   : libebml v1.3.6 + libmatroska v1.4.9

Видео
Идентификатор                            : 1
Формат                                   : AVC
Формат/Информация                        : Advanced Video Codec
Профиль формата                          : High@L4.1
Параметр CABAC формата                   : Да
Параметр ReFrames формата                : 10 кадров
Идентификатор кодека                     : V_MPEG4/ISO/AVC
Продолжительность                        : 1 ч. 12 м.
Битрейт                                  : 1863 Кбит/сек
Ширина                                   : 1024 пикселя
Высота                                   : 426 пикселей
Соотношение сторон                       : 2,40:1
Режим частоты кадров                     : Постоянный
Частота кадров                           : 25,000 кадров/сек
Цветовое пространство                    : YUV
Субдискретизация насыщенности            : 4:2:0
Битовая глубина                          : 8 бит
Тип развёртки                            : Прогрессивная
Бит/(Пиксели*Кадры)                      : 0.171
Размер потока                            : 969 Мбайт (91%)
Библиотека кодирования                   : x264 core 146 r2538 121396c
Настройки программы                      : cabac=1 / ref=10 / deblock=1:-3:-3 / analyse=0x3:0x113 / me=umh / subme=11 / psy=1 / psy_rd=0.99:0.04 / mixed_ref=1 / me_range=48 / chroma_me=1 / trellis=2 / 8x8dct=1 / cqm=0 / deadzone=21,11 / fast_pskip=1 / chroma_qp_offset=-3 / threads=6 / lookahead_threads=1 / sliced_threads=0 / nr=0 / decimate=1 / interlaced=0 / bluray_compat=0 / constrained_intra=0 / bframes=10 / b_pyramid=2 / b_adapt=2 / b_bias=0 / direct=3 / weightb=1 / open_gop=0 / weightp=2 / keyint=240 / keyint_min=24 / scenecut=40 / intra_refresh=0 / rc_lookahead=40 / rc=2pass / mbtree=0 / bitrate=1863 / ratetol=1.0 / qcomp=0.60 / qpmin=0 / qpmax=69 / qpstep=4 / cplxblur=20.0 / qblur=0.5 / vbv_maxrate=50000 / vbv_bufsize=62500 / nal_hrd=none / filler=0 / ip_ratio=1.40 / pb_ratio=1.30 / aq=1:1.00
Язык                                     : English
Default                                  : Да
Forced                                   : Нет

Аудио
Идентификатор                            : 2
Формат                                   : AC-3
Формат/Информация                        : Audio Coding 3
Расширение режима                        : CM (complete main)
Параметр Endianness формата              : Big
Идентификатор кодека                     : A_AC3
Продолжительность                        : 1 ч. 12 м.
Вид битрейта                             : Постоянный
Битрейт                                  : 192 Кбит/сек
Каналы                                   : 2 канала
Расположение каналов                     : Front: L R
Частота                                  : 48,0 КГц
Частота кадров                           : 31,250 кадров/сек (1536 spf)
Битовая глубина                          : 16 бит
Метод сжатия                             : С потерями
Размер потока                            : 99,9 Мбайт (9%)
Язык                                     : Russian
Default                                  : Да
Forced                                   : Нет



Скриншоты:
[+] Всего файлов в раздаче - 1:
Kilimandzhara.2018.WEB-DLRip(AVC).OlLanDGroup.mkv1.04 GB

Текущая раздача:
ДатаКомментарии    РазмерПиры
2018-10-20 U Килиманджара (2018) WEB-DLRip-AVC от OlLanDGroup 1.04 GB ↑ 439 ↓ 174

Похожие раздачи по запросу - килиманджара:
2018-10-21 U Килиманджара (2018) WEB-DLRip от GeneralFilm 743.84 MB ↑ 240 ↓ 52
2018-10-21 U Килиманджара (2018) WEB-DLRip от GeneralFilm 1К1.09 GB ↑ 316 ↓ 62
2018-10-20 U Килиманджара (2018) WEB-DLRip 1.09 GB ↑ 641 ↓ 143
2018-10-20 U Килиманджара (2018) WEB-DL 1080p 2.70 GB ↑ 887 ↓ 299

Отзывы
Зарегистрируйтесь чтобы добавить комментарий.
Обратная связь
Copyleft ©