↑↓Torrent.by
Поиск
Логин: Регистрация
Пароль: Восстановить пароль
Загрузка...

Килиманджара (2018) WEB-DL 1080p

Скачать kilimandzhara-2018-web-dl-1080p.torrent
U Магнитная ссылка Размер: 2.70 GB Раздают: 885 Качают: 299 Добавлен: 2018-10-20 17:33:44
Килиманджара (2018) WEB-DL 1080p

Год выпуска: 2018
Жанр:  Комедия, приключения
Режиссёр: Катерина Телегина
В ролях: Павел Прилучный, Ирина Старшенбаум, Максим Виторган, Таир Иманов, Тимофей Трибунцев, Варвара Бородина, Мария Смольникова, Артем Сучков, Мурад Мамедов

Описание:
У москвички Маруси в день свадьбы исчезает жених. Но девушка не собирается этого так оставлять. Она решительно настроена отыскать его, а для этого собирает команду друзей, с которыми отправляется в Баку, на родину своего суженого. Но никто из друзей и предположить не мог, что впереди их ждет множество приключений, которые отразятся на жизни каждого из них.

Страна: Россия
Производство: ПЦ «Среда», «Планета парни из Баку филмс»
Продолжительность: 01:12:45
Перевод: Не требуется
Субтитры: Нет
Реклама: Отсутствует

Тип релиза: WEB-DL 1080p
Контейнер: MKV
Видео: MPEG4 AVC Video, H264, 2.40:1, 1920x800, 25 fps, 5117 kbps
Аудио: AC3, 2 ch, 192 kbps, 16 bits


[+] M/I
General
Unique ID : 232270384433721848200485435143858375929 (0xAEBDA61B86D54331B34E1330104B4CF9)
Complete name : D:Kilimandzhara.2018.WEB-DL.(1080p).Getty.mkv
Format : Matroska
Format version : Version 4 / Version 2
File size : 2.70 GiB
Duration : 1 h 12 min
Overall bit rate : 5 311 kb/s
Movie name : Kilimandzhara.2018.WEB-DL.(1080p).Getty
Encoded date : UTC 2018-10-19 11:47:54
Writing application : mkvmerge v7.8.0 ('River Man') 32bit built on Mar 27 2015 16:18:02
Writing library : libebml v1.3.1 + libmatroska v1.4.2

Video
ID : 1
Format : AVC
Format/Info : Advanced Video Codec
Format profile : High@L4
Format settings : CABAC / 4 Ref Frames
Format settings, CABAC : Yes
Format settings, ReFrames : 4 frames
Format settings, GOP : M=7, N=50
Codec ID : V_MPEG4/ISO/AVC
Duration : 1 h 12 min
Bit rate : 5 117 kb/s
Width : 1 920 pixels
Height : 800 pixels
Display aspect ratio : 2.40:1
Frame rate mode : Constant
Frame rate : 25.000 FPS
Color space : YUV
Chroma subsampling : 4:2:0
Bit depth : 8 bits
Scan type : Progressive
Bits/(Pixel*Frame) : 0.133
Stream size : 2.60 GiB (96%)
Default : Yes
Forced : No

Audio
ID : 2
Format : AC-3
Format/Info : Audio Coding 3
Codec ID : A_AC3
Duration : 1 h 12 min
Bit rate mode : Constant
Bit rate : 192 kb/s
Channel(s) : 2 channels
Channel positions : Front: L R
Sampling rate : 48.0 kHz
Frame rate : 31.250 FPS (1536 SPF)
Bit depth : 16 bits
Compression mode : Lossy
Stream size : 99.9 MiB (4%)
Service kind : Complete Main
Default : Yes
Forced : No



Скриншоты:
[+] Всего файлов в раздаче - 1:
Kilimandzhara.2018.WEB-DL.(1080p).Getty.mkv2.70 GB

Текущая раздача:
ДатаКомментарии    РазмерПиры
2018-10-20 U Килиманджара (2018) WEB-DL 1080p 2.70 GB ↑ 885 ↓ 299

Похожие раздачи по запросу - килиманджара:
2018-10-21 U Килиманджара (2018) WEB-DLRip от GeneralFilm 743.84 MB ↑ 238 ↓ 51
2018-10-21 U Килиманджара (2018) WEB-DLRip от GeneralFilm 1К1.09 GB ↑ 315 ↓ 62
2018-10-20 U Килиманджара (2018) WEB-DLRip 1.09 GB ↑ 636 ↓ 142
2018-10-20 U Килиманджара (2018) WEB-DLRip-AVC от OlLanDGroup 1.04 GB ↑ 438 ↓ 174

Отзывы
Зарегистрируйтесь чтобы добавить комментарий.
Обратная связь
Copyleft ©