↑↓Torrent.by
Поиск
Логин: Регистрация
Пароль: Восстановить пароль
Загрузка...

Уральские Пельмени - Утро в сосновом бреду [эфир от 19.10] (2018) WEBRip 720p

Скачать uralskie-pelmeni-utro-v-sosnovom-bredu-efir-ot-19-10-2018-webrip-720p.torrent
U Магнитная ссылка Размер: 1.06 GB Раздают: 312 Качают: 88 Добавлен: 2018-10-20 17:34:15
Уральские Пельмени - Утро в сосновом бреду [эфир от 19.10] (2018) WEBRip 720p

Название: Уральские пельмени - Утро в сосновом бреду
Год выхода: 2018
Жанр: ТВ-шоу, юмор
Режиссер: Анастастия Ширина, Леонид Коновалов
В ролях: Дмитрий Брекоткин, Сергей Ершов, Сергей Исаев, Сергей Калугин, Вячеслав Мясников, Александр Попов, Андрей Рожков, Дмитрий Соколов (V), Максим Ярица, Юлия Михалкова, Илана Юрьева, Ксения Корнева

О фильме: Когда все и петь, и рисовать! Когда картину маслом не испортишь! Когда всё делается через эскизы! Когда мазки широки, а холсты толсты! Тогда наступает «Утро в сосновом бреду»! Новая программа Шоу «Уральские Пельмени».

Страна: Россия
Студия: YBW Group, СТС
Продолжительность: 01:12:27

Файл
Кодек: MPEG-4 AVC
Качество: WEBRip
Видео: 1280x720, 2005 Кбит/с, 25 fps
Звук: AAC-LC, 1 ch, 96 kb/s
[+] MediaInfo
General
Unique ID                   : 179371262599609482045825682854319333104 (0x86F1A6095C02F4619342EB8A5BA99EF0)
Complete name               : UP.Utro.V.Sosnovom.Bredu.19.10.18.WEBRip.720p.mkv
Format                      : Matroska
Format version              : Version 4 / Version 2
File size                   : 1.06 GiB
Duration                    : 1 h 12 min
Overall bit rate            : 2 103 kb/s
Encoded date                : UTC 2018-10-20 06:29:14
Writing application         : mkvmerge v10.0.0 ('To Drown In You') 32bit
Writing library             : libebml v1.3.4 + libmatroska v1.4.5

Video
ID                          : 1
Format                      : AVC
Format/Info                 : Advanced Video Codec
Format profile              : Main@L3.1
Format settings, CABAC      : Yes
Format settings, ReFrames   : 3 frames
Codec ID                    : V_MPEG4/ISO/AVC
Duration                    : 1 h 12 min
Bit rate                    : 2 005 kb/s
Width                       : 1 280 pixels
Height                      : 720 pixels
Display aspect ratio        : 16:9
Frame rate mode             : Constant
Frame rate                  : 25.000 FPS
Color space                 : YUV
Chroma subsampling          : 4:2:0
Bit depth                   : 8 bits
Scan type                   : Progressive
Bits/(Pixel*Frame)          : 0.087
Stream size                 : 1.01 GiB (95%)
Default                     : Yes
Forced                      : No
Color range                 : Limited
Color primaries             : BT.709
Transfer characteristics    : BT.709
Matrix coefficients         : BT.709

Audio
ID                          : 2
Format                      : AAC
Format/Info                 : Advanced Audio Codec
Format profile              : LC
Codec ID                    : A_AAC
Duration                    : 1 h 12 min
Bit rate                    : 96.0 kb/s
Channel(s)                  : 1 channel
Channel positions           : Front: C
Sampling rate               : 44.1 kHz
Frame rate                  : 43.066 FPS (1024 spf)
Compression mode            : Lossy
Stream size                 : 49.8 MiB (5%)
Default                     : Yes
Forced                      : No




Скриншоты:
[+] Всего файлов в раздаче - 1:
UP.Utro.V.Sosnovom.Bredu.19.10.18.WEBRip.720p.mkv1.06 GB

Текущая раздача:
ДатаКомментарии    РазмерПиры
2018-10-20 U Уральские Пельмени - Утро в сосновом бреду [эфир от 19.10] (2018) WEBRip 720p 1.06 GB ↑ 312 ↓ 88

Показать еще раздачи по запросу уральские:
2018-10-21 U Уральские Пельмени - Азбука Уральских Пельменей - Г (2018) WEBRip от music80 1.11 GB ↑ 95 ↓ 47
2018-10-21 U Уральские Пельмени - Утро в сосновом бреду (2018) WEBRip 1080p от music80 1К2.16 GB ↑ 171 ↓ 53
2018-10-20 U Уральские Пельмени - Утро в сосновом бреду [эфир от 19.10] (2018) SATRip 924.01 MB ↑ 634 ↓ 121
2018-10-18 U Уральские пельмени - Азбука Уральских Пельменей - Г (2018) WEBRip 720p 653.40 MB ↑ 354 ↓ 94
2018-06-18 U Уральские пельмени - Азбука Уральских Пельменей - Б (2018) WEBRip 720p 652.39 MB ↑ 190 ↓ 51
2018-06-16 U Уральские пельмени - Азбука Уральских Пельменей - В (2018) WEBRip 720p 1.06 GB ↑ 406 ↓ 90
2018-06-16 U Уральские пельмени - Азбука Уральских Пельменей - В (2018) WEBRip 1080p 2.13 GB ↑ 170 ↓ 105

Отзывы
Зарегистрируйтесь чтобы добавить комментарий.
Обратная связь
Copyleft ©