↑↓Torrent.by
Поиск
Логин: Регистрация
Пароль: Восстановить пароль
Загрузка...

С камерой по восточному фронту / Мit der Kаmеrа an dеr Ostfrоnt (1939-1944) DVDRip-AVC от KORSAR | L1

Скачать s-kameroy-po-vostochnomu-frontu-mit-der-kamera-an-ostfront-1939-1944-dvdrip-avc-ot-korsar-l1.torrent
U Магнитная ссылка Размер: 2.93 GB Раздают: 336 Качают: 183 Добавлен: 2018-10-21 19:43:34
С камерой по восточному фронту / Мit der Kаmеrа an dеr Ostfrоnt (1939-1944) DVDRip-AVC от KORSAR | L1

С камерой по восточному фронту / Мit der Kаmеrа an dеr Ostfrоnt

Дата/Год выпуска: 1939-1944
Страна: Германия (Polar Film & Medien GmbH)
Жанр:  Документальный, война, кинохроника, история
Продолжительность: 00:54:02 + 00:54:15 + 00:56:20
Перевод: Одноголосый закадровый
Доп. инфо о переводе: (den904)
Режиссер: Гетц Хирт-Ригер / Götz Hirt-Rеgеr

Описание: «С камерой по восточному фронту» - это личные 16-мм киноплёнки немецкого репортера, переведённые в «цифру». Он снимал свои кино-зарисовки будучи официальным оператором еженедельника «Wochenschau», готовившего со своей камерой материалы для отдела кинопропаганды и... для себя. У вас есть возможность посмотреть его личные записи - многие из которых отсняты в цвете...
Выражение «Embedded journalists» можно перевести приблизительно так – «внедрённые» в боевое подразделение журналисты, которые сообщают с передовой о делах на фронте и результатах похода. Это понятие не является каким-то изобретением современности. Уже во Второй Мировой войне было примерно 300 так называемых «военкоров», которые вели съемки на всех участках фронта и создавали репортажи для «Немецкого киножурнала» по поручению Имперского министерства Народного просвещения и пропаганды.
Так как многие сюжеты снимались при драматических обстоятельствах и в непосредственной зоне боевых действий, больше чем одна треть всех операторов фильмов оплачивала добытый материал своей жизнью.
Одним из таких кинооператоров был Гетц Хирт-Ригер, который был совсем юным восторженным юношей и непрофессиональным режиссёром. Куда бы он только не попадал, он всегда имел при себе камеру и запас кассет фирмы «Кодак» в пленках, которые всегда находили место в его полевом багаже. Из-за своего особенного таланта (обучался Гетц в Берлине как режиссёр документальных фильмов) он был откомандирован на восточный фронт как солдат Вермахта.
Здесь он снимал свои сенсационные репортажи, вёл частично цветные съёмки продвижения Вермахта на Москву, сражения за Орёл, ход грандиозной танковой битвы под Курском, Кубанская операция и фронтовые зарисовки на Днепре. Он снимал оборонительные позиции дружественных частей румын на Чёрном море, присоединялся к разведгруппе идущей вглубь обороны советских войск и пережил кровавую бойню в пригородной зоне Яссы и Кишинёва, где погибло или попало в русский плен примерно 250.000 немецких солдат.
И ещё: то, что едва ли кто знал - Хирт-Ригер почти всё время снимал двумя камерами. Одной камерой он вёл официальные съёмки, а своей личной кинокамерой всё то, что не находило официального признания и не показывалось в «Немецком киножурнале»: незамаскированная жизнь немецких солдат на кровавой войне.
Гетц Хирт-Ригер стал таким образом невольным летописцем тех давних событий. Его личные киноплёнки, которые, невзирая ни на что, пережили войну, относятся к самым важным сокровищам документальных лент времён Третьего Рейха.

Файл
Кодек: х264
Качество: DVDRip-AVC
Видео: MPEG-4 AVC, 702x572@748x572, 25 fps, 2350 Кбит/с
Звук: AC3, 2 ch, 192 Кбит/с

Релиз:
[+] MediaInfo

x264 [info]: frame I:627   Avg QP:18.08  size: 57323
x264 [info]: frame P:25385 Avg QP:20.45  size: 23505
x264 [info]: frame B:55052 Avg QP:22.34  size:  5811==================================================================
Общее
Уникальный идентификатор                 : 233182451743516808281504099141085040472 (0xAF6D4E7F6CBB0CB39376D1517DB80F58)
Полное имя                               : R:МОИ РИПЫС камерой по восточному фронту_1939-44-DVDRip-AVCPart-1.mkv
Формат                                   : Matroska
Версия формата                           : Version 2
Размер файла                             : 983 Мбайт
Продолжительность                        : 54 м. 2 с.
Общий поток                              : 2544 Кбит/сек
Дата кодирования                         : UTC 2017-03-03 18:19:22
Программа кодирования                    : mkvmerge v5.8.0 ('No Sleep / Pillow') built on Sep  2 2012 15:37:04
Библиотека кодирования                   : libebml v1.2.3 + libmatroska v1.3.0

Видео
Идентификатор                            : 1
Формат                                   : AVC
Формат/Информация                        : Advanced Video Codec
Профиль формата                          : High@L4.1
Параметр CABAC формата                   : Да
Параметр ReFrames формата                : 14 кадров
Идентификатор кодека                     : V_MPEG4/ISO/AVC
Продолжительность                        : 54 м. 2 с.
Битрейт                                  : 2350 Кбит/сек
Ширина                                   : 702 пикселя
Высота                                   : 572 пикселя
Соотношение сторон                       : 4:3
Соотношение сторон в оригинале           : 4:3
Режим частоты кадров                     : Постоянный
Частота кадров                           : 25,000 кадров/сек
Цветовое пространство                    : YUV
Субдискретизация насыщенности            : 4:2:0
Битовая глубина                          : 8 бит
Тип развёртки                            : Прогрессивная
Бит/(Пиксели*Кадры)                      : 0.234
Размер потока                            : 890 Мбайт (90%)
Заголовок                                : korsar.tv
Библиотека кодирования                   : x264 core 148 r2744kMod b97ae06
Настройки программы                      : cabac=1 / ref=14 / deblock=1:-2:-1 / analyse=0x3:0x133 / me=umh / subme=10 / psy=1 / fade_compensate=0.00 / psy_rd=1.05:0.10 / mixed_ref=1 / me_range=32 / chroma_me=1 / trellis=2 / 8x8dct=1 / cqm=0 / deadzone=21,11 / fast_pskip=0 / chroma_qp_offset=-3 / threads=12 / lookahead_threads=2 / sliced_threads=0 / nr=0 / decimate=0 / interlaced=0 / bluray_compat=0 / constrained_intra=0 / bframes=9 / b_pyramid=2 / b_adapt=2 / b_bias=0 / direct=3 / weightb=1 / open_gop=0 / weightp=2 / keyint=250 / keyint_min=25 / scenecut=40 / intra_refresh=0 / rc=2pass / mbtree=0 / bitrate=2350 / ratetol=1.0 / qcomp=0.63 / qpmin=0 / qpmax=39 / qpstep=4 / cplxblur=20.0 / qblur=0.5 / ip_ratio=1.25 / pb_ratio=1.30 / aq=1:1.00
Язык                                     : English
Default                                  : Да
Forced                                   : Нет
Цветовой диапазон                        : Limited
Основные цвета                           : BT.601 PAL
Характеристики трансфера                 : BT.470 System B, BT.470 System G
Коэффициенты матрицы                     : BT.601

Аудио
Идентификатор                            : 2
Формат                                   : AC-3
Формат/Информация                        : Audio Coding 3
Расширение режима                        : CM (complete main)
Параметр Endianness формата              : Big
Идентификатор кодека                     : A_AC3
Продолжительность                        : 54 м. 2 с.
Вид битрейта                             : Постоянный
Битрейт                                  : 192 Кбит/сек
Каналы                                   : 2 канала
Расположение каналов                     : Front: L R
Частота                                  : 48,0 КГц
Частота кадров                           : 31,250 кадров/сек (1536 spf)
Битовая глубина                          : 16 бит
Метод сжатия                             : С потерями
Размер потока                            : 74,2 Мбайт (8%)
Язык                                     : Russian
Default                                  : Да
Forced                                   : Нет




Скриншоты:
[+] Всего файлов в раздаче - 3:
Part-3.mkv1.00 GB
Part-2.mkv987.21 MB
Part-1.mkv983.29 MB

Отзывы
Зарегистрируйтесь чтобы добавить комментарий.
Обратная связь
Copyleft ©