↑↓Torrent.by
Поиск
Логин: Регистрация
Пароль: Восстановить пароль
Загрузка...

Супердискотека 90-х от Радио Рекорд в Санкт-Петербурге [20.10] (2018) WEBRip 720p от music80

Скачать superdiskoteka-90-h-ot-radio-rekord-v-sankt-peterburge-20-10-2018-webrip-720p-music80.torrent
U Магнитная ссылка Размер: 12.32 GB Раздают: 105 Качают: 118 Добавлен: 2018-10-21 22:50:25
Супердискотека 90-х от Радио Рекорд в Санкт-Петербурге [20.10] (2018) WEBRip 720p от music80

Оригинальное название: Супердискотека 90-х от Радио Рекорд в Санкт-Петербурге (20.10.2018)
Год выхода: 2018
Жанр: Концерт, шоу.

О фильме:
Этой осенью Радио Рекорд раскрутил Петербургский СКК на все 360 градусов. Да, по многочисленным заявкам на наш пейджер снова поставили сцену в центре арены. Ведь классным пацанам и девчонкам нужно больше места для энергичных танцев и отличный вид на любимых артистов с любой точки трибун!
Самое главное остается неизменным: атмосфера отвязных, музыкальных и таких наших 90-х! Интерактивные зоны в фойе, танцпол «Колбасный цехъ», ностальгические видеоролики, бешеная энергетика в зале и песни, ставшие символом безумной эпохи.

Страна: Россия

Файл
Качество: WEBRip 720p
Видео: AVC/H.264, 1280x720, ~7296 Kbps
Аудио: AC3, 2 ch, 384 Kbps
Продолжительность: 03:45:01

Релиз от: by music80
[+] Треклист:
Intro
ID
Дискотека Авария - Хиа-хоп хаус / Пей пиво / Влечение / Новогодняя / Свет далеких планет
Света - Что мне делать / Твои глаза / Хватит давольно / Я тебя люблю
Yann Destal from Modjo - *** / lady
Русский размер - Ангел дня / Вот так / Весна
ППК - Воскрешение
На-На - Фаина / Шляпа
Татьяна Буланова vs DJ ЦветкоFF - Лето-зиа / Мой сон
2 Unlimited - Tribal dance / Let the beet / Jump for joy / *** / The real Thing / No limit
Ace of Base - Happy nation / The sign / All that she wants / Beautiful life
666 -  ID / Paradoxx / Amokk / ***
Оксана Ковалевская KRASKI - Он не знает ничего / Ты уже взрослый / Не трогайте меня  / Я люблю тебя Сергей
Генеральный продюсер радио Record Андрей Резников
Люся Чиботина - Давайте вспомним
Карина Кокс ex. Сливки - Летели недели
Отпетые Мошенники vs. Карина Кокс - Моя звезда
Отпетые Мошенники - А у реки / Девушки бывают разные / Люби меня
Оксана Почепа АКУЛА - Кислотный Ди-Джей / Мало / Такая любовь
Melanie C - I Turn to you / Never Be The Same Again / Will be there / ***
DJ Aligator - Давай-давай / I like to move it / Dog style / ***
Вирус - Попрошу тебя / Счастье / Ручки / Ты меня не ищи



[+] Инфо-файл:
General
Unique ID                      : 16103573029475926544239183774644595098 (0xC1D6F73283E500081EB6B0671FA699A)
Complete name                  : F:Супердискотека 90-х в Санкт-Петербурге 2018.mkv
Format                         : Matroska
Format version                 : Version 4 / Version 2
File size                      : 12.3 GiB
Duration                       : 3 h 45 min
Overall bit rate               : 7 836 kb/s
Writing application            : Lavf58.7.100
Writing library                : Lavf58.7.100
ErrorDetectionType             : Per level 1

Video
ID                             : 1
Format                         : AVC
Format/Info                    : Advanced Video Codec
Format profile                 : High@L3.2
Format settings                : CABAC / 3 Ref Frames
Format settings, CABAC         : Yes
Format settings, ReFrames      : 3 frames
Format settings, GOP           : M=1, N=30
Codec ID                       : V_MPEG4/ISO/AVC
Duration                       : 3 h 45 min
Bit rate                       : 7 296 kb/s
Width                          : 1 280 pixels
Height                         : 720 pixels
Display aspect ratio           : 16:9
Frame rate mode                : Constant
Frame rate                     : 30.068 FPS
Color space                    : YUV
Chroma subsampling             : 4:2:0
Bit depth                      : 8 bits
Scan type                      : Progressive
Bits/(Pixel*Frame)             : 0.263
Stream size                    : 11.5 GiB (93%)
Default                        : Yes
Forced                         : No

Audio
ID                             : 2
Format                         : AC-3
Format/Info                    : Audio Coding 3
Codec ID                       : A_AC3
Duration                       : 3 h 45 min
Bit rate mode                  : Constant
Bit rate                       : 384 kb/s
Channel(s)                     : 2 channels
Channel positions              : Front: L R
Sampling rate                  : 44.1 kHz
Frame rate                     : 28.711 FPS (1536 SPF)
Bit depth                      : 16 bits
Compression mode               : Lossy
Stream size                    : 618 MiB (5%)
Service kind                   : Complete Main
Default                        : Yes
Forced                         : No




[+] Дополнительная информация:
Данное видео выкачано оригинальным файлом из трансляции без каких либо изменений и кодирования.
В треклисте не все названия песен смог распознать (титров в прямом эфире не было), поэтому недостающие отмечены *** Если кто возьмется помочь - спасибо.
P.S. - НЕ запись с экрана!



Скриншоты:
[+] Всего файлов в раздаче - 1:
Супердискотека 90-х в Санкт-Петербурге 2018.mkv12.32 GB

Текущая раздача:
ДатаКомментарии    РазмерПиры
2018-10-21 U Супердискотека 90-х от Радио Рекорд в Санкт-Петербурге [20.10] (2018) WEBRip 720p от music80 12.32 GB ↑ 105 ↓ 118

Показать еще раздачи по запросу супердискотека:
2017-12-03 U Сказочная Супердискотека 90-х Радио Рекорд [02.12] (2017) WEBRip от GeneralFilm 2.44 GB ↑ 142 ↓ 74
2017-12-03 U Сказочная Супердискотека 90-х Радио Рекорд [02.12] (2017) WEBRip 1080p от GeneralFilm 10.03 GB ↑ 69 ↓ 138
2016-11-30 U Супердискотека 90-х Радио Рекорд [19.11] (2016) WEB-DL 1080p от HitWay 1К6.00 GB ↑ 716 ↓ 129
2016-04-11 U Космическая Супердискотека 90-х Радио Рекорд [09.04.2016] (2016) WEB-DL 720p от FilmRus 2.98 GB ↑ 120 ↓ 36
2016-03-07 U Супердискотека 90-х Радио Рекорд на МУЗ-ТВ [эфир 03.04] (2016) SATRip от GeneralFilm 2.19 GB ↑ 426 ↓ 114
2014-04-21 U Супердискотека 90-х Радио Рекорд [эфир 04.19] (2014) SATRip от GeneralFilm 2.18 GB ↑ 874 ↓ 18
2013-11-24 U Супердискотека 90-х. Санкт-Петербург [23.11] (2013) DVB 3.89 GB ↑ 101 ↓ 85

Отзывы
Зарегистрируйтесь чтобы добавить комментарий.
Обратная связь
Copyleft ©