↑↓Torrent.by
Поиск
Логин: Регистрация
Пароль: Восстановить пароль
Загрузка...

Неуловимые мстители (1966) WEBRip 720p от KORSAR

Скачать neulovimye-mstiteli-1966-webrip-720p-ot-korsar.torrent
U Магнитная ссылка Размер: 3.91 GB Раздают: 72 Качают: 30 Добавлен: 2018-10-23 02:56:51
Неуловимые мстители (1966) WEBRip 720p от KORSAR

Название: Неуловимые мстители
Год выхода: 1966
Жанр:  Приключения, боевик
Режиссер: Эдмонд Кеосаян
В ролях: Виктор Косых, Ефим Копелян, Владимир Трещалов, Борис Сичкин, Савелий Крамаров, Владимир Белокуров, Инна Чурикова, Василий Васильев, Валентина Курдюкова, Михаил Метёлкин

Описание: Бывший гимназист Валерка, веселый отчаянный Яшка-цыган, оставшиеся сиротами Данька и его сестренка Ксанка дали клятву внедриться в отряд к атаману Бурнашу и отомстить ему и его банде за смерть отца Даньки. Под видом сына старого друга атамана Данька проникает в отряд Бурнаша. Однако бандиты сумели узнать об этом. Даньку ждет казнь, но друзья на то и друзья, чтобы не бросить своего товарища в беде.

Выпущено: СССР
Продолжительность: 01:13:50
Перевод: Не требуется

Файл
Кодек: х264
Качество: WEBRip 720p
Видео: MPEG-4 AVC, 1280x568, 7007 Кбит/с, 25.000 fps
Аудио 1: AC3, 6 ch, 448 Кбит/с
Аудио 2: AC3, 1 ch, 128 Кбит/с
Субтитры: Нет
Навигация по главам: Есть

Релиз:
[+] MediaInfo
x264 [info]: frame I:615   Avg QP:18.61  size:148327
x264 [info]: frame P:33897 Avg QP:20.43  size: 72780
x264 [info]: frame B:76239 Avg QP:21.78  size: 22916

======================================

Общее
Уникальный идентификатор                 : 194604733039027021339914529969897914474 (0x9267821DD8ECCB5FA2AFF51407C2C06A)
Полное имя                               : Неуловимые.мстители.1966.WEBRip.720p.KORSAR.mkv
Формат                                   : Matroska
Версия формата                           : Version 2
Размер файла                             : 3,91 Гбайт
Продолжительность                        : 1 ч. 13 м.
Общий поток                              : 7582 Кбит/сек
Дата кодирования                         : UTC 2017-03-12 15:22:34
Программа кодирования                    : mkvmerge v5.8.0 ('No Sleep / Pillow') built on Sep  2 2012 15:37:04
Библиотека кодирования                   : libebml v1.2.3 + libmatroska v1.3.0

Видео
Идентификатор                            : 1
Формат                                   : AVC
Формат/Информация                        : Advanced Video Codec
Профиль формата                          : High@L4.1
Параметр CABAC формата                   : Да
Параметр RefFrames формата               : 11 кадров
Идентификатор кодека                     : V_MPEG4/ISO/AVC
Продолжительность                        : 1 ч. 13 м.
Битрейт                                  : 7007 Кбит/сек
Ширина                                   : 1280 пикселей
Высота                                   : 568 пикселей
Соотношение сторон                       : 2,25:1
Режим частоты кадров                     : Постоянный
Частота кадров                           : 25,000 кадров/сек
Цветовое пространство                    : YUV
Субдискретизация насыщенности            : 4:2:0
Битовая глубина                          : 8 бит
Тип развёртки                            : Прогрессивная
Бит/(Пиксели*Кадры)                      : 0.386
Размер потока                            : 3,54 Гбайт (90%)
Заголовок                                : Неуловимые.мстители.1966.WEBRip.720p.KORSAR
Библиотека кодирования                   : x264 core 148 r2744kMod b97ae06
Настройки программы                      : cabac=1 / ref=11 / deblock=1:-1:-1 / analyse=0x3:0x113 / me=umh / subme=10 / psy=1 / fade_compensate=0.00 / psy_rd=1.05:0.10 / mixed_ref=1 / me_range=32 / chroma_me=1 / trellis=2 / 8x8dct=1 / cqm=0 / deadzone=21,11 / fast_pskip=0 / chroma_qp_offset=-3 / threads=12 / lookahead_threads=2 / sliced_threads=0 / nr=0 / decimate=0 / interlaced=0 / bluray_compat=0 / constrained_intra=0 / bframes=8 / b_pyramid=2 / b_adapt=2 / b_bias=0 / direct=3 / weightb=1 / open_gop=0 / weightp=2 / keyint=250 / keyint_min=25 / scenecut=40 / intra_refresh=0 / rc_lookahead=40 / rc=2pass / mbtree=0 / bitrate=7007 / ratetol=1.0 / qcomp=0.63 / qpmin=0 / qpmax=39 / qpstep=4 / cplxblur=20.0 / qblur=0.5 / vbv_maxrate=50000 / vbv_bufsize=62500 / nal_hrd=none / filler=0 / ip_ratio=1.25 / pb_ratio=1.30 / aq=2:0.80
Язык                                     : English
Default                                  : Да
Forced                                   : Нет
Цветовой диапазон                        : Limited
Основные цвета                           : BT.709
Характеристики трансфера                 : BT.709
Коэффициенты матрицы                     : BT.709

Аудио #1
Идентификатор                            : 2
Формат                                   : AC-3
Формат/Информация                        : Audio Coding 3
Параметр Endianness формата              : Big
Идентификатор кодека                     : A_AC3
Продолжительность                        : 1 ч. 13 м.
Вид битрейта                             : Постоянный
Битрейт                                  : 448 Кбит/сек
Каналы                                   : 6 каналов
Расположение каналов                     : Front: L C R, Side: L R, LFE
Частота                                  : 48,0 КГц
Частота кадров                           : 31,250 кадров/сек (1536 SPF)
Битовая глубина                          : 16 бит
Метод сжатия                             : С потерями
Задержка видео                           : 2 с. 107 мс.
Размер потока                            : 237 Мбайт (6%)
Язык                                     : Russian
Default                                  : Да
Forced                                   : Нет

Аудио #2
Идентификатор                            : 3
Формат                                   : AC-3
Формат/Информация                        : Audio Coding 3
Параметр Endianness формата              : Big
Идентификатор кодека                     : A_AC3
Продолжительность                        : 1 ч. 13 м.
Вид битрейта                             : Постоянный
Битрейт                                  : 128 Кбит/сек
Каналы                                   : 1 канал
Расположение каналов                     : Front: C
Частота                                  : 48,0 КГц
Частота кадров                           : 31,250 кадров/сек (1536 SPF)
Битовая глубина                          : 16 бит
Метод сжатия                             : С потерями
Задержка видео                           : 2 с. 303 мс.
Размер потока                            : 67,6 Мбайт (2%)
Язык                                     : Russian
Default                                  : Нет
Forced                                   : Нет

Меню
00:00:00.000                             : en:Chapter 1
00:06:30.600                             : en:Chapter 2
00:11:01.800                             : en:Chapter 3
00:18:51.000                             : en:Chapter 4
00:26:24.000                             : en:Chapter 5
00:28:53.400                             : en:Chapter 6
00:40:48.600                             : en:Chapter 7
00:45:22.800                             : en:Chapter 8
00:48:29.400                             : en:Chapter 9
00:55:09.600                             : en:Chapter 10
01:00:57.600                             : en:Chapter 11
01:05:46.200                             : en:Chapter 12



Скриншоты:
[+] Всего файлов в раздаче - 1:
Неуловимые.мстители.1966.WEBRip.720p.KORSAR.mkv3.91 GB

Текущая раздача:
ДатаКомментарии    РазмерПиры
2018-10-23 U Неуловимые мстители (1966) WEBRip 720p от KORSAR 3.91 GB ↑ 72 ↓ 30

Показать еще раздачи по запросу неуловимые:
Вчера U Неуловимые [01-08 из 08] (2018) HDTVRip от Generalfilm | КПК 1.45 GB ↑ 56 ↓ 19
2018-11-10 U Неуловимые [01-08 из 08] (2018) WEB-DL 1080p от MediaClub 14.60 GB ↑ 129 ↓ 182
2018-11-10 U Неуловимые [01-08 из 08] (2017) HDTVRip от Files-x 4.63 GB ↑ 119 ↓ 116
2018-11-10 U Неуловимые [01-08 из 08] (2018) HDTVRip от GeneralFilm 4.35 GB ↑ 181 ↓ 153
2018-11-10 U Неуловимые [01-06 из 08] (2017) HDTVRip от Files-x 3.48 GB ↑ 52 ↓ 45
2018-11-10 U Неуловимые [01-08 из 08] (2017) HDTVRip-AVC от Files-x 5.98 GB ↑ 107 ↓ 175
2018-11-09 U Неуловимые [01-08 из 08] (2018) SATRip 5.05 GB ↑ 416 ↓ 737

Отзывы
Зарегистрируйтесь чтобы добавить комментарий.
Обратная связь
Copyleft ©