↑↓Torrent.by
Поиск
Логин: Регистрация
Пароль: Восстановить пароль
Загрузка...

Корона Российской империи, или Снова неуловимые (1971) WEBRip 720p от KORSAR

Скачать korona-rossiyskoy-imperii-ili-snova-neulovimye-1971-webrip-720p-ot-korsar.torrent
U Магнитная ссылка Размер: 5.54 GB Раздают: 58 Качают: 44 Добавлен: 2018-10-23 02:57:09
Корона Российской империи, или Снова неуловимые (1971) WEBRip 720p от KORSAR

Название: Корона Российской империи, или Снова неуловимые
Год выхода: 1971
Жанр:  Боевик, приключения, история
Режиссер: Эдмонд Кеосаян
В ролях: Михаил Метёлкин, Виктор Косых, Василий Васильев, Валентина Курдюкова, Иван Переверзев, Владислав Стржельчик, Армен Джигарханян, Аркадий Толбузин, Ролан Быков, Людмила Гурченко

Описание: Кончилась гражданская война. Четвёрка неуловимых мстителей, ставших чекистами, получает новое задание: охранять музейные ценности, в том числе и Большую императорскую корону. А между тем именно ею мечтают короноваться авантюристы, которые ведут в Париже борьбу за престол несуществующей Российской империи.

Выпущено: СССР
Продолжительность: 01:03:42 + 01:05:36
Перевод: Не требуется

Файл
Кодек: х264
Качество: WEBRip 720p
Видео: MPEG-4 AVC, 1280x576, 5555 Кбит/с, 25.000 fps
Аудио 1: AC3, 6 ch, 448 Кбит/с
Аудио 2: AC3, 1 ch, 128 Кбит/с
Субтитры: Нет

Релиз:
[+] MediaInfo
x264 [info]: frame I:621 Avg QP:18.46 size: 140964
x264 [info]: frame P:33647 Avg QP:20.61 size: 66525
x264 [info]: frame B:76483 Avg QP:22.06 size: 20301

======================================

Общее
Уникальный идентификатор                 : 189326042848901528818076298414766326020 (0x8E6EDE98B2FB21A3BECAB33BB19A8104)
Полное имя                               : Корона.Российской.империи.или.Снова.неуловимые.1971.WEBRip.720p.KORSAR.mkv
Формат                                   : Matroska
Версия формата                           : Version 2
Размер файла                             : 2,73 Гбайт
Продолжительность                        : 1 ч. 3 м.
Общий поток                              : 6133 Кбит/сек
Дата кодирования                         : UTC 2017-03-12 15:40:34
Программа кодирования                    : mkvmerge v5.8.0 ('No Sleep / Pillow') built on Sep  2 2012 15:37:04
Библиотека кодирования                   : libebml v1.2.3 + libmatroska v1.3.0

Видео
Идентификатор                            : 1
Формат                                   : AVC
Формат/Информация                        : Advanced Video Codec
Профиль формата                          : High@L4.1
Параметр CABAC формата                   : Да
Параметр RefFrames формата               : 11 кадров
Идентификатор кодека                     : V_MPEG4/ISO/AVC
Продолжительность                        : 1 ч. 3 м.
Битрейт                                  : 5555 Кбит/сек
Ширина                                   : 1280 пикселей
Высота                                   : 576 пикселей
Соотношение сторон                       : 2,222
Режим частоты кадров                     : Постоянный
Частота кадров                           : 25,000 кадров/сек
Цветовое пространство                    : YUV
Субдискретизация насыщенности            : 4:2:0
Битовая глубина                          : 8 бит
Тип развёртки                            : Прогрессивная
Бит/(Пиксели*Кадры)                      : 0.301
Размер потока                            : 2,42 Гбайт (89%)
Заголовок                                : Корона.Российской.империи.или.Снова.неуловимые.1971.WEBRip.720p.KORSAR
Библиотека кодирования                   : x264 core 148 r2744kMod b97ae06
Настройки программы                      : cabac=1 / ref=11 / deblock=1:-1:-1 / analyse=0x3:0x113 / me=umh / subme=10 / psy=1 / fade_compensate=0.00 / psy_rd=1.05:0.10 / mixed_ref=1 / me_range=32 / chroma_me=1 / trellis=2 / 8x8dct=1 / cqm=0 / deadzone=21,11 / fast_pskip=0 / chroma_qp_offset=-3 / threads=12 / lookahead_threads=2 / sliced_threads=0 / nr=0 / decimate=0 / interlaced=0 / bluray_compat=0 / constrained_intra=0 / bframes=9 / b_pyramid=2 / b_adapt=2 / b_bias=0 / direct=3 / weightb=1 / open_gop=0 / weightp=2 / keyint=250 / keyint_min=25 / scenecut=40 / intra_refresh=0 / rc_lookahead=40 / rc=2pass / mbtree=0 / bitrate=5555 / ratetol=1.0 / qcomp=0.63 / qpmin=0 / qpmax=39 / qpstep=4 / cplxblur=20.0 / qblur=0.5 / vbv_maxrate=50000 / vbv_bufsize=62500 / nal_hrd=none / filler=0 / ip_ratio=1.25 / pb_ratio=1.30 / aq=2:0.80
Язык                                     : English
Default                                  : Да
Forced                                   : Нет
Цветовой диапазон                        : Limited
Основные цвета                           : BT.709
Характеристики трансфера                 : BT.709
Коэффициенты матрицы                     : BT.709

Аудио #1
Идентификатор                            : 2
Формат                                   : AC-3
Формат/Информация                        : Audio Coding 3
Параметр Endianness формата              : Big
Идентификатор кодека                     : A_AC3
Продолжительность                        : 1 ч. 3 м.
Вид битрейта                             : Постоянный
Битрейт                                  : 448 Кбит/сек
Каналы                                   : 6 каналов
Расположение каналов                     : Front: L C R, Side: L R, LFE
Частота                                  : 48,0 КГц
Частота кадров                           : 31,250 кадров/сек (1536 SPF)
Битовая глубина                          : 16 бит
Метод сжатия                             : С потерями
Задержка видео                           : 1 с. 29 мс.
Размер потока                            : 204 Мбайт (7%)
Язык                                     : Russian
Default                                  : Да
Forced                                   : Нет

Аудио #2
Идентификатор                            : 3
Формат                                   : AC-3
Формат/Информация                        : Audio Coding 3
Параметр Endianness формата              : Big
Идентификатор кодека                     : A_AC3
Продолжительность                        : 1 ч. 3 м.
Вид битрейта                             : Постоянный
Битрейт                                  : 128 Кбит/сек
Каналы                                   : 1 канал
Расположение каналов                     : Front: C
Частота                                  : 48,0 КГц
Частота кадров                           : 31,250 кадров/сек (1536 SPF)
Битовая глубина                          : 16 бит
Метод сжатия                             : С потерями
Задержка видео                           : 1 с. 29 мс.
Размер потока                            : 58,3 Мбайт (2%)
Язык                                     : Russian
Default                                  : Нет
Forced                                   : Нет



Скриншоты:
[+] Всего файлов в раздаче - 2:
Мстители-2.mkv2.81 GB
Мстители-1.mkv2.73 GB

Текущая раздача:
ДатаКомментарии    РазмерПиры
2018-10-23 U Корона Российской империи, или Снова неуловимые (1971) WEBRip 720p от KORSAR 5.54 GB ↑ 58 ↓ 44

Показать еще раздачи по запросу корона:
2017-02-22 U Корона / The Crown [S01] (2016) WEBRip | NewStudio 1К9.13 GB ↑ 47 ↓ 51
2016-11-25 U Корона на Рождество / Crown for Christmas (2015) WEB-DLRip от MegaPeer | iTunes 1К1.46 GB ↑ 135 ↓ 44
2016-10-26 U Мифика: Стальная корона / Mythica: The Iron Crown (2016) WEB-DL 1080p | P 1К3.87 GB ↑ 156 ↓ 20
2016-10-25 U Мифика: Стальная корона / Mythica: The Iron Crown (2016) WEB-DLRip | P 1.46 GB ↑ 486 ↓ 165
2016-07-19 U Мифика: Стальная корона / Mythica: The Iron Crown (2016) WEBRip 720p | L 2.82 GB ↑ 205 ↓ 27
2016-07-18 U Мифика: Стальная корона / Mythica: The Iron Crown (2016) WEBRip | L 1К1.37 GB ↑ 700 ↓ 196
2014-05-14 U Forgotten Books: The Enchanted Crown / Забытые книги: Зачарованная корона [P] [RUS] (2014) 889.10 MB ↑ 620 ↓ 46

Отзывы
Зарегистрируйтесь чтобы добавить комментарий.
Обратная связь
Copyleft ©