↑↓Torrent.by
Поиск
Логин: Регистрация
Пароль: Восстановить пароль
Загрузка...

Взбесившийся автобус (1991) DVDRip-AVC от KORSAR

Скачать vzbesivshiysya-avtobus-1991-dvdrip-avc-ot-korsar.torrent
U Магнитная ссылка Размер: 1.78 GB Раздают: 47 Качают: 4 Добавлен: 2018-10-23 04:47:52
Взбесившийся автобус (1991) DVDRip-AVC от KORSAR

Взбесившийся автобус
Год выпуска: 1990
Страна: СССР
Жанр:  криминал
Продолжительность: 01:45:39

Режиссер: Георгий Натансон
Сценарий: Давид Маркиш
Оператор: Вадим Семеновых
Композитор: Евгений Дога

В ролях: Ивар Калныньш (полковник Орлов), Игорь Бочкин (Паша, главарь террористов), Анна Самохина (Томка), Анна Тихонова, Каха Дзадзамия, Амаяк Акопян, Сергей Максачев, Эммануил Виторган (господин Анук), Юрий Демич (Матвеев), Борис Щербаков, Всеволод Платов, Александр Кузнецов (пилот)
Дублёры: Сергей Малишевский (полковник Орлов)
Мировая премьера: 1 сентября 1991

Описание:В основу фильма положены реальные события декабря 1988 года, когда на Северном Кавказе был захвачен автобус с детьми. Школьники вместе с учительницей оказались заложниками матерых преступников, требующих крупную сумму денег в валюте и предоставления возможности вылететь самолетом за границу.

Релиз:

Файл
Кодек: х264
Качество: DVDRip-AVC
Видео: MPEG-4 AVC, 696x478@768x478, 25 fps, 2222 Кбит/с
Звук: AC3, 2 ch, 192 Кбит/с


[+] Отличия фильма от реальных событий
* В фильме террористы не отпускают учительницу, и она летит с ними в Израиль. В самолёте двое из них пытаются её изнасиловать. В реальности — террористы отпустили учительницу, и она в Израиль не летела.
* Захваченный бандитами самолёт вылетел в Израиль днём, а не поздно вечером.
* Ни один персонаж не похож на реальных участников событий.
* В фильме двое школьников воспользовались ситуацией и убежали от бандитов. В реальности, никто из заложников не пытался убегать.
* Террористы решают сбросить автобус с самолета при подлете к аэропорту Бен-Гурион и израильские военные, по причине возможных провокаций, дают приказ поднять истребители в небо. Это также художественный вымысел режиссера.



[+] Инфо файл

x264 [info]: frame I:976   Avg QP:17.24  size: 58465
x264 [info]: frame P:34588 Avg QP:19.95  size: 26181
x264 [info]: frame B:122720 Avg QP:22.51  size:  6485
бщее
Уникальный идентификатор                 : 201720985913429988942091168042123594340 (0x97C20C78CBBFAF61B6BCF301861D0A64)
Полное имя                               : D:Взбесившийся автобус_1991-DVDRip-AVC.mkv
Формат                                   : Matroska
Версия формата                           : Version 2
Размер файла                             : 1,78 Гбайт
Продолжительность                        : 1 ч. 45 м.
Общий поток                              : 2416 Кбит/сек
Дата кодирования                         : UTC 2017-04-24 12:51:20
Программа кодирования                    : mkvmerge v5.8.0 ('No Sleep / Pillow') built on Sep  2 2012 15:37:04
Библиотека кодирования                   : libebml v1.2.3 + libmatroska v1.3.0

Видео
Идентификатор                            : 1
Формат                                   : AVC
Формат/Информация                        : Advanced Video Codec
Профиль формата                          : High@L4.1
Параметр CABAC формата                   : Да
Параметр ReFrames формата                : 14 кадров
Идентификатор кодека                     : V_MPEG4/ISO/AVC
Продолжительность                        : 1 ч. 45 м.
Битрейт                                  : 2222 Кбит/сек
Ширина                                   : 696 пикселей
Высота                                   : 478 пикселей
Соотношение сторон                       : 16:10
Режим частоты кадров                     : Постоянный
Частота кадров                           : 25,000 кадров/сек
Цветовое пространство                    : YUV
Субдискретизация насыщенности            : 4:2:0
Битовая глубина                          : 8 бит
Тип развёртки                            : Прогрессивная
Бит/(Пиксели*Кадры)                      : 0.267
Размер потока                            : 1,60 Гбайт (90%)
Библиотека кодирования                   : x264 core 148 r2744kMod b97ae06
Настройки программы                      : cabac=1 / ref=14 / deblock=1:-2:-1 / analyse=0x3:0x133 / me=umh / subme=10 / psy=1 / fade_compensate=0.00 / psy_rd=1.05:0.10 / mixed_ref=1 / me_range=32 / chroma_me=1 / trellis=2 / 8x8dct=1 / cqm=0 / deadzone=21,11 / fast_pskip=0 / chroma_qp_offset=-3 / threads=12 / lookahead_threads=2 / sliced_threads=0 / nr=0 / decimate=0 / interlaced=0 / bluray_compat=0 / constrained_intra=0 / bframes=9 / b_pyramid=2 / b_adapt=2 / b_bias=0 / direct=3 / weightb=1 / open_gop=0 / weightp=2 / keyint=250 / keyint_min=25 / scenecut=40 / intra_refresh=0 / rc=2pass / mbtree=0 / bitrate=2222 / ratetol=1.0 / qcomp=0.63 / qpmin=0 / qpmax=39 / qpstep=4 / cplxblur=20.0 / qblur=0.5 / ip_ratio=1.25 / pb_ratio=1.30 / aq=1:1.00
Язык                                     : English
Default                                  : Да
Forced                                   : Нет
Цветовой диапазон                        : Limited
Основные цвета                           : BT.601 PAL
Характеристики трансфера                 : BT.470 System B, BT.470 System G
Коэффициенты матрицы                     : BT.601

Аудио
Идентификатор                            : 2
Формат                                   : AC-3
Формат/Информация                        : Audio Coding 3
Расширение режима                        : CM (complete main)
Параметр Endianness формата              : Big
Идентификатор кодека                     : A_AC3
Продолжительность                        : 1 ч. 45 м.
Вид битрейта                             : Постоянный
Битрейт                                  : 192 Кбит/сек
Каналы                                   : 2 канала
Расположение каналов                     : Front: L R
Частота                                  : 48,0 КГц
Частота кадров                           : 31,250 кадров/сек (1536 spf)
Битовая глубина                          : 16 бит
Метод сжатия                             : С потерями
Размер потока                            : 145 Мбайт (8%)
Язык                                     : Russian
Default                                  : Да
Forced                                   : Нет




Скриншоты:
[+] Всего файлов в раздаче - 1:
Взбесившийся автобус_1991-DVDRip-AVC.mkv1.78 GB

Отзывы
Зарегистрируйтесь чтобы добавить комментарий.
Обратная связь
Copyleft ©