↑↓Torrent.by
Поиск
Логин: Регистрация
Пароль: Восстановить пароль
Загрузка...

История одного назначения (2018) WEB-DLRip | iTunes

Скачать istoriya-odnogo-naznacheniya-2018-web-dlrip-itunes.torrent
U Магнитная ссылка Размер: 1.46 GB Раздают: 1190 Качают: 315 Добавлен: 2018-10-23 21:00:12
История одного назначения (2018) WEB-DLRip | iTunes

Название: История одного назначения
Год выхода: 2018
Жанр: Драма
Страна: Россия
Перевод: Не требуется
Продолжительность: 01:48:51
Режиссер: Авдотья Смирнова
В ролях: Алексей Смирнов, Евгений Харитонов, Филипп Гуревич, Ирина Горбачева, Елизавета Янковская, Игорь Золотовицкий, Анна Михалкова, Сергей Уманов, Анна Пармас, Андрей Смирнов и др.

О фильме: В пехотном полку в Тульской области, куда отправляется на службу вдохновленный передовыми идеями столичный поручик Григорий Колокольцев, происходит преступление. Солдату, на плечи которого ложится вина, грозит военный трибунал и расстрел. Колокольцев обращается за помощью к графу Толстому, который решает защитить невиновного.

Файл
Формат: AVI
Качество: WEB-DLRip
Видео: Xvid 73, 720x304, ~1524 kbps, 25,000 fps
Звук: русский, AC3, 5.1 ch, 48 kHz, 384 kbps | iTunes
Субтитры: нет


[+] MI
General
Полное имя                               : F:TorrentIstoriyaNaznacheniyaWEB-DLRip.avi
Формат                                   : AVI
Формат/Информация                        : Audio Video Interleave
Профиль формата                          : OpenDML
Размер файла                             : 1.46 GiB
Продолжительность                        : 1 h 48 min
Общий поток                              : 1 920 kb/s
Программа кодирования                    : XviD4PSP 6.0 / 54.27.101

Video
Идентификатор                            : 0
Формат                                   : MPEG-4 Visual
Профиль формата                          : Advanced Simple@L5
Настройки формата                        : BVOP2 / Custom Matrix
Параметр BVOP формата                    : 2
Параметр QPel формата                    : No
Параметр GMC формата                     : No warppoints
Параметр матрицы формата                 : Custom
Идентификатор кодека                     : XVID
Идентификатор кодека/Подсказка           : XviD
Продолжительность                        : 1 h 48 min
Битрейт                                  : 1 524 kb/s
Ширина                                   : 720 pixels
Высота                                   : 304 pixels
Соотношение сторон                       : 2.35:1
Частота кадров                           : 25.000 FPS
Цветовое пространство                    : YUV
Субдискретизация насыщенности            : 4:2:0
Битовая глубина                          : 8 bits
Тип развёртки                            : Progressive
Метод сжатия                             : Lossy
Бит/(Пиксели*Кадры)                      : 0.279
Размер потока                            : 1.16 GiB (79%)
Библиотека кодирования                   : XviD 73

Audio
Идентификатор                            : 1
Формат                                   : AC-3
Формат/Информация                        : Audio Coding 3
Идентификатор кодека                     : 2000
Продолжительность                        : 1 h 48 min
Вид битрейта                             : Constant
Битрейт                                  : 384 kb/s
Каналы                                   : 6 channels
Расположение каналов                     : Front: L C R, Side: L R, LFE
Частота                                  : 48.0 kHz
Частота кадров                           : 31.250 FPS (1536 SPF)
Битовая глубина                          : 16 bits
Метод сжатия                             : Lossy
Размер потока                            : 299 MiB (20%)
Выравнивание                             : Aligned on interleaves
Продолжительность промежутка             : 32  ms (0.80 video frame)




Скриншоты:
[+] Всего файлов в раздаче - 1:
IstoriyaNaznacheniyaWEB-DLRip.avi1.46 GB

Текущая раздача:
ДатаКомментарии    РазмерПиры
2018-10-23 U История одного назначения (2018) WEB-DLRip | iTunes 1.46 GB ↑ 1190 ↓ 315

Показать еще раздачи по запросу история:
2019-01-09 U История русской еды [01-04] (2019) IPTVRip 1.39 GB ↑ 125 ↓ 21
2019-01-05 U Военная история №01 (2019) PDF 19.69 MB ↑ 74 ↓ 7
2018-12-10 U Борис Акунин - История Российского государства. Евразийская империя. Эпоха цариц (2018) MP3 777.13 MB ↑ 117 ↓ 21
2018-11-27 U Загадки века. Несокрушимый: история забытого подвига (2018) SATRip 546.84 MB ↑ 98 ↓ 17
2018-11-18 U Американская история ужасов / American Horror Story [S08] (2018) WEB-DL 720p | Amedia 5.38 GB ↑ 76 ↓ 114
2018-10-24 U История одного назначения (2018) WEB-DLRip от GeneralFilm | iTunes 746.24 MB ↑ 356 ↓ 32
2018-10-24 U История одного назначения (2018) WEB-DLRip-AVC | iTunes 744.42 MB ↑ 65 ↓ 15

Отзывы
Зарегистрируйтесь чтобы добавить комментарий.
Обратная связь
Copyleft ©