↑↓Torrent.by
Поиск
Логин: Регистрация
Пароль: Восстановить пароль
Загрузка...

История одного назначения (2018) WEB-DL 1080p | iTunes

Скачать istoriya-odnogo-naznacheniya-2018-web-dl-1080p-itunes.torrent
U Магнитная ссылка Размер: 3.76 GB Раздают: 951 Качают: 403 Добавлен: 2018-10-23 21:00:24
История одного назначения (2018) WEB-DL 1080p | iTunes

Название: История одного назначения
Год выпуска: 2018
Жанр:  Драма
Режиссёр: Авдотья Смирнова
В ролях: Алексей Смирнов, Евгений Харитонов, Филипп Гуревич, Ирина Горбачева, Елизавета Янковская, Игорь Золотовицкий, Анна Михалкова, Сергей Уманов, Анна Пармас, Андрей Смирнов

Описание:
В пехотном полку в Тульской области, куда отправляется на службу вдохновленный передовыми идеями столичный поручик Григорий Колокольцев, происходит преступление. Солдату, на плечи которого ложится вина, грозит военный трибунал и расстрел. Колокольцев обращается за помощью к графу Толстому, который решает защитить невиновного.

Страна: Россия
Студия: Кинокомпания СТВ, Студия Глобус
Продолжительность: 01:48:51
Язык: Русский

Файл
Формат: MKV
Качество: WEB-DL 1080p
Видео: 1920x806 (2,40:1), 25 fps, MPEG-4 AVC ~ 4559 kbps avg, 0.118 bit/pixel
Звук: AC3, 48 kHz, 6 ch, ~384.00 kbps avg | русский | iTunes

Субтитры: Отсутствуют


[+] Инфо-файл
Общее
Уникальный идентификатор                 : 294296718832543041431251551279401811942 (0xDD677C8059591BD183C0C69FC3863FE6)
Полное имя                               : ISTORYA_ODNOGO_NAZNACHENYA (2018) WEB-DL 1080p.mkv
Формат                                   : Matroska
Версия формата                           : Version 4 / Version 2
Размер файла                             : 3,76 Гбайт
Продолжительность                        : 1 ч. 48 м.
Общий поток                              : 4945 Кбит/сек
Название фильма                          : История одного назначения (2018)
Дата кодирования                         : UTC 2018-10-23 11:40:02
Программа кодирования                    : mkvmerge v27.0.0 ('Metropolis') 64-bit
Библиотека кодирования                   : libebml v1.3.6 + libmatroska v1.4.9

Видео
Идентификатор                            : 1
Формат                                   : AVC
Формат/Информация                        : Advanced Video Codec
Профиль формата                          : High@L4
Настройки формата                        : CABAC / 5 Ref Frames
Параметр CABAC формата                   : Да
Параметр RefFrames формата               : 5 кадров
Идентификатор кодека                     : V_MPEG4/ISO/AVC
Продолжительность                        : 1 ч. 48 м.
Битрейт                                  : 4559 Кбит/сек
Ширина                                   : 1920 пикселей
Высота                                   : 806 пикселей
Соотношение сторон                       : 2,40:1
Режим частоты кадров                     : Постоянный
Частота кадров                           : 25,000 кадров/сек
Цветовое пространство                    : YUV
Субдискретизация насыщенности            : 4:2:0
Битовая глубина                          : 8 бит
Тип развёртки                            : Прогрессивная
Бит/(Пиксели*Кадры)                      : 0.118
Размер потока                            : 3,47 Гбайт (92%)
Заголовок                                : ISTORYA_ODNOGO_NAZNACHENYA (2018) WEB-DL 1080p
Язык                                     : English
Default                                  : Да
Forced                                   : Да
Цветовой диапазон                        : Limited
Основные цвета                           : BT.709
Характеристики трансфера                 : BT.709
Коэффициенты матрицы                     : BT.709

Аудио
Идентификатор                            : 2
Формат                                   : AC-3
Формат/Информация                        : Audio Coding 3
Идентификатор кодека                     : A_AC3
Продолжительность                        : 1 ч. 48 м.
Вид битрейта                             : Постоянный
Битрейт                                  : 384 Кбит/сек
Каналы                                   : 6 каналов
Расположение каналов                     : Front: L C R, Side: L R, LFE
Частота                                  : 48,0 КГц
Частота кадров                           : 31,250 кадров/сек (1536 SPF)
Битовая глубина                          : 16 бит
Метод сжатия                             : С потерями
Задержка видео                           : -40 мс.
Размер потока                            : 299 Мбайт (8%)
Заголовок                                : iTunes | ISTORYA_ODNOGO_NAZNACHENYA (2018) WEB-DL 1080p
Язык                                     : Russian
Default                                  : Да
Forced                                   : Да

Меню
00:00:00.000                             : en:Глава 1
00:06:55.440                             : en:Глава 2
00:12:49.880                             : en:Глава 3
00:18:56.520                             : en:Глава 4
00:26:18.400                             : en:Глава 5
00:31:03.480                             : en:Глава 6
00:37:57.840                             : en:Глава 7
00:43:47.040                             : en:Глава 8
00:49:13.080                             : en:Глава 9
00:55:30.360                             : en:Глава 10
01:00:35.040                             : en:Глава 11
01:06:20.440                             : en:Глава 12
01:10:49.560                             : en:Глава 13
01:17:36.640                             : en:Глава 14
01:25:17.560                             : en:Глава 15
01:32:35.040                             : en:Глава 16
01:39:31.960                             : en:Глава 17




Скриншоты:
[+] Всего файлов в раздаче - 1:
ISTORYA_ODNOGO_NAZNACHENYA (2018) WEB-DL 1080p.mkv3.76 GB

Текущая раздача:
ДатаКомментарии    РазмерПиры
2018-10-23 U История одного назначения (2018) WEB-DL 1080p | iTunes 3.76 GB ↑ 951 ↓ 403

Показать еще раздачи по запросу история:
2018-10-24 U История одного назначения (2018) WEB-DLRip от GeneralFilm | iTunes 746.24 MB ↑ 240 ↓ 30
2018-10-24 U История одного назначения (2018) WEB-DLRip-AVC | iTunes 744.42 MB ↑ 65 ↓ 15
2018-10-23 U История одного назначения (2018) WEB-DLRip от MegaPeer | iTunes 1.46 GB ↑ 253 ↓ 104
2018-10-23 U История одного назначения (2018) WEB-DLRip | iTunes 1.46 GB ↑ 1176 ↓ 313
2018-09-23 U Американская история ужасов / American Horror Story [08x01-02 из 11] (2018) WEB-DL 1080p | Amedia 4.94 GB ↑ 222 ↓ 66
2018-09-14 U История вертолетов [01-04 из 04] (2018) SATRip 2.01 GB ↑ 120 ↓ 36
2018-09-14 U Американская история ужасов / American Horror Story [08x01 из 11] (2018) WEB-DLRip | Amedia 598.24 MB ↑ 53 ↓ 3

Отзывы
Зарегистрируйтесь чтобы добавить комментарий.
Обратная связь
Copyleft ©