↑↓Torrent.by
Поиск
Логин: Регистрация
Пароль: Восстановить пароль
Загрузка...

История одного назначения (2018) WEB-DLRip от GeneralFilm | iTunes

Скачать istoriya-odnogo-naznacheniya-2018-web-dlrip-ot-generalfilm-itunes.torrent
U Магнитная ссылка Размер: 746.24 MB Раздают: 410 Качают: 31 Добавлен: 2018-10-24 19:33:38
История одного назначения (2018) WEB-DLRip от GeneralFilm | iTunes

Информация о фильме
Название: История одного назначения
Год выхода: 2018
Жанр: Драма
Режиссер: Авдотья Смирнова
В ролях: Алексей Смирнов, Евгений Харитонов, Филипп Гуревич, Ирина Горбачева, Елизавета Янковская, Игорь Золотовицкий, Анна Михалкова, Сергей Уманов, Анна Пармас, Андрей Смирнов и др.

О фильме:
В пехотном полку в Тульской области, куда отправляется на службу вдохновленный передовыми идеями столичный поручик Григорий Колокольцев, происходит преступление. Солдату, на плечи которого ложится вина, грозит военный трибунал и расстрел. Колокольцев обращается за помощью к графу Толстому, который решает защитить невиновного.

Страна: Россия
Студия: Кинокомпания СТВ, Студия Глобус
Продолжительность: 01:48:51
Перевод: Не требуется | iTunes
Субтитры: нет

Файл
Формат: avi
Качество: WEB-DLRip
Видео: XviD build 73, 688x288 (2.40:1), 25.000 fps, 757 Kbps (0.153 bit/pixel)
Звук: 48.0 kHz, AC3, 2/0 ch, 192 kbps

Релиз:


[+] MediaInfo
General
Complete name               : D:RazdachiIstorija.Odnogo.Naznachenija.2018.XviD.WEB-DLRip.GeneralFilm.avi
Format                      : AVI
Format/Info                 : Audio Video Interleave
File size                   : 746 MiB
Duration                    : 1 h 48 min
Overall bit rate            : 958 kb/s
Writing application         : VirtualDubMod 1.5.10.3 | www.virtualdub-fr.org || (build 2550/release)
Writing library             : VirtualDubMod build 2550/release

Video
ID                          : 0
Format                      : MPEG-4 Visual
Format profile              : Advanced Simple@L5
Format settings, BVOP       : 1
Format settings, QPel       : No
Format settings, GMC        : No warppoints
Format settings, Matrix     : Custom
Codec ID                    : XVID
Codec ID/Hint               : XviD
Duration                    : 1 h 48 min
Bit rate                    : 757 kb/s
Width                       : 688 pixels
Height                      : 288 pixels
Display aspect ratio        : 2.40:1
Frame rate                  : 25.000 FPS
Color space                 : YUV
Chroma subsampling          : 4:2:0
Bit depth                   : 8 bits
Scan type                   : Progressive
Compression mode            : Lossy
Bits/(Pixel*Frame)          : 0.153
Stream size                 : 589 MiB (79%)
Writing library             : XviD 73

Audio
ID                          : 1
Format                      : AC-3
Format/Info                 : Audio Coding 3
Format settings, Endianness : Big
Codec ID                    : 2000
Duration                    : 1 h 48 min
Bit rate mode               : Constant
Bit rate                    : 192 kb/s
Channel(s)                  : 2 channels
Channel positions           : Front: L R
Sampling rate               : 48.0 kHz
Frame rate                  : 31.250 FPS (1536 SPF)
Bit depth                   : 16 bits
Compression mode            : Lossy
Stream size                 : 149 MiB (20%)
Alignment                   : Split accross interleaves
Interleave, duration        : 40  ms (1.00 video frame)
Interleave, preload duratio : 500  ms
Service kind                : Complete Main



Скриншоты:
[+] Всего файлов в раздаче - 1:
Istorija.Odnogo.Naznachenija.2018.XviD.WEB-DLRip.GeneralFilm.avi746.24 MB

Показать еще раздачи по запросу история:
2019-04-21 U 1+1: Голливудская история / The Upside (2018) WEB-DL 1080p | iTunes 9.47 GB ↑ 50 ↓ 27
2019-04-12 U 1+1: Голливудская история / The Upside (2018) WEB-DLRip от MegaPeer | iTunes 2.18 GB ↑ 142 ↓ 28
2019-04-12 U 1+1: Голливудская история / The Upside (2018) WEB-DL 720p от селезень | iTunes 4.27 GB ↑ 132 ↓ 22
2019-04-11 U 1+1: Голливудская история / The Upside (2018) WEB-DLRip от MegaPeer | iTunes 1.47 GB ↑ 457 ↓ 249
2019-04-11 U 1+1: Голливудская история / The Upside (2018) WEB-DL 1080p от селезень | iTunes 5.24 GB ↑ 504 ↓ 282
2019-04-09 U Алексей Исаев, Артем Драбкин - История Великой Отечественной войны 1941-1945 гг. (2018) FB2 2.51 MB ↑ 141 ↓ 8
2019-03-12 U Мрачная история 10: Горбун из Нотр-Дама / Dark Romance 10: Hunchback of Notre-Dame (2019) PC 1.16 GB ↑ 66 ↓ 6

Отзывы
Зарегистрируйтесь чтобы добавить комментарий.
Обратная связь
Copyleft ©