↑↓Torrent.by
Поиск
Логин: Регистрация
Пароль: Восстановить пароль
Загрузка...

История одного назначения (2018) WEB-DLRip от GeneralFilm | iTunes

Скачать istoriya-odnogo-naznacheniya-2018-web-dlrip-ot-generalfilm-itunes.torrent
U Магнитная ссылка Размер: 746.24 MB Раздают: 240 Качают: 30 Добавлен: 2018-10-24 19:33:38
История одного назначения (2018) WEB-DLRip от GeneralFilm | iTunes

Информация о фильме
Название: История одного назначения
Год выхода: 2018
Жанр: Драма
Режиссер: Авдотья Смирнова
В ролях: Алексей Смирнов, Евгений Харитонов, Филипп Гуревич, Ирина Горбачева, Елизавета Янковская, Игорь Золотовицкий, Анна Михалкова, Сергей Уманов, Анна Пармас, Андрей Смирнов и др.

О фильме:
В пехотном полку в Тульской области, куда отправляется на службу вдохновленный передовыми идеями столичный поручик Григорий Колокольцев, происходит преступление. Солдату, на плечи которого ложится вина, грозит военный трибунал и расстрел. Колокольцев обращается за помощью к графу Толстому, который решает защитить невиновного.

Страна: Россия
Студия: Кинокомпания СТВ, Студия Глобус
Продолжительность: 01:48:51
Перевод: Не требуется | iTunes
Субтитры: нет

Файл
Формат: avi
Качество: WEB-DLRip
Видео: XviD build 73, 688x288 (2.40:1), 25.000 fps, 757 Kbps (0.153 bit/pixel)
Звук: 48.0 kHz, AC3, 2/0 ch, 192 kbps

Релиз:


[+] MediaInfo
General
Complete name               : D:RazdachiIstorija.Odnogo.Naznachenija.2018.XviD.WEB-DLRip.GeneralFilm.avi
Format                      : AVI
Format/Info                 : Audio Video Interleave
File size                   : 746 MiB
Duration                    : 1 h 48 min
Overall bit rate            : 958 kb/s
Writing application         : VirtualDubMod 1.5.10.3 | www.virtualdub-fr.org || (build 2550/release)
Writing library             : VirtualDubMod build 2550/release

Video
ID                          : 0
Format                      : MPEG-4 Visual
Format profile              : Advanced Simple@L5
Format settings, BVOP       : 1
Format settings, QPel       : No
Format settings, GMC        : No warppoints
Format settings, Matrix     : Custom
Codec ID                    : XVID
Codec ID/Hint               : XviD
Duration                    : 1 h 48 min
Bit rate                    : 757 kb/s
Width                       : 688 pixels
Height                      : 288 pixels
Display aspect ratio        : 2.40:1
Frame rate                  : 25.000 FPS
Color space                 : YUV
Chroma subsampling          : 4:2:0
Bit depth                   : 8 bits
Scan type                   : Progressive
Compression mode            : Lossy
Bits/(Pixel*Frame)          : 0.153
Stream size                 : 589 MiB (79%)
Writing library             : XviD 73

Audio
ID                          : 1
Format                      : AC-3
Format/Info                 : Audio Coding 3
Format settings, Endianness : Big
Codec ID                    : 2000
Duration                    : 1 h 48 min
Bit rate mode               : Constant
Bit rate                    : 192 kb/s
Channel(s)                  : 2 channels
Channel positions           : Front: L R
Sampling rate               : 48.0 kHz
Frame rate                  : 31.250 FPS (1536 SPF)
Bit depth                   : 16 bits
Compression mode            : Lossy
Stream size                 : 149 MiB (20%)
Alignment                   : Split accross interleaves
Interleave, duration        : 40  ms (1.00 video frame)
Interleave, preload duratio : 500  ms
Service kind                : Complete Main



Скриншоты:
[+] Всего файлов в раздаче - 1:
Istorija.Odnogo.Naznachenija.2018.XviD.WEB-DLRip.GeneralFilm.avi746.24 MB

Текущая раздача:
ДатаКомментарии    РазмерПиры
2018-10-24 U История одного назначения (2018) WEB-DLRip от GeneralFilm | iTunes 746.24 MB ↑ 240 ↓ 30

Показать еще раздачи по запросу история:
2018-10-24 U История одного назначения (2018) WEB-DLRip-AVC | iTunes 744.42 MB ↑ 65 ↓ 15
2018-10-23 U История одного назначения (2018) WEB-DLRip от MegaPeer | iTunes 1.46 GB ↑ 254 ↓ 104
2018-10-23 U История одного назначения (2018) WEB-DL 1080p | iTunes 3.76 GB ↑ 951 ↓ 404
2018-10-23 U История одного назначения (2018) WEB-DLRip | iTunes 1.46 GB ↑ 1176 ↓ 313
2018-09-23 U Американская история ужасов / American Horror Story [08x01-02 из 11] (2018) WEB-DL 1080p | Amedia 4.94 GB ↑ 223 ↓ 66
2018-09-14 U История вертолетов [01-04 из 04] (2018) SATRip 2.01 GB ↑ 120 ↓ 36
2018-09-14 U Американская история ужасов / American Horror Story [08x01 из 11] (2018) WEB-DLRip | Amedia 598.24 MB ↑ 53 ↓ 3

Отзывы
Зарегистрируйтесь чтобы добавить комментарий.
Обратная связь
Copyleft ©