↑↓Torrent.by
Поиск
Логин: Регистрация
Пароль: Восстановить пароль
Загрузка...

Суперсемейка 2 / Incredibles 2 (2018) WEB-DL 1080p от TeamHD | iTunes

Скачать supersemeyka-2-incredibles-2018-web-dl-1080p-ot-teamhd-itunes.torrent
U Магнитная ссылка Размер: 4.34 GB Раздают: 871 Качают: 458 Добавлен: 2018-10-26 07:39:24
Суперсемейка 2 / Incredibles 2 (2018) WEB-DL 1080p от TeamHD | iTunes

Название: Суперсемейка 2
Оригинальное название: Incredibles 2
Год выхода: 2018
Жанр: Мультфильм, фантастика, боевик, комедия, приключения, семейный, полнометражный
Режиссер: Брэд Берд
В ролях: Крэйг Т. Нельсон, Холли Хантер, Сара Вауэлл, Хак Милнер, Кэтрин Кинер, Илай Фучиле, Боб Оденкёрк, Сэмюэл Л. Джексон, Майкл Бёрд, София Буш

О фильме: После событий первой части суперсемейка пользуется повышенным вниманием со стороны журналистов. Неожиданно оказалось, что обаятельная Миссис Исключительная гораздо лучше смотрится на экране телевизора, чем её муж. Мистеру Исключительному все чаще приходится сидеть дома и приглядывать за детьми, у каждого из которых есть свои причины быть недовольным собственными суперспособностями. Однако семейным проблемам предстоит отступить на второй план, когда окажется, что спокойствию Суперсемейки угрожает новый могущественный враг.

Страна: США
Студия: Pixar Animation Studios, Walt Disney Pictures
Продолжительность: 01:57:49
Перевод: Дублированный | iTunes

Качество: WEB-DL 1080p
Видео: MPEG-4 AVC, 1920x804, 4503 Kbit/s, 23.976 fps
Звук:
Аудио #01: 48 kHz, AC3, 5.1, 384 Kbps | iTunes | RUS |
Аудио #02: 48 kHz, AC3, 5.1, 384 Kbps | Оригинал |  ENG |
Субтитры: Русские (Forced, full, SDH), английские

Релиз: Автор релиза:


[+] MI
General
Unique ID                   : 254457257880535456980199372053886453214 (0xBF6EAF6CAAC90C415DBA84E230DAC5DE)
Complete name               : D:Video111Incredibles.2.2018.1080p.WEB-DL.TeamHD.mkv
Format                      : Matroska
Format version              : Version 4
File size                   : 4.34 GiB
Duration                    : 1 h 57 min
Overall bit rate            : 5 274 kb/s
Movie name                  : Incredibles 2 2018 TeamHD-селезень
Encoded date                : UTC 2018-10-25 18:15:17
Writing application         : mkvmerge v28.0.0 ('Voice In My Head') 64-bit
Writing library             : libebml v1.3.6 + libmatroska v1.4.9

Video
ID                          : 1
Format                      : AVC
Format/Info                 : Advanced Video Codec
Format profile              : High@L4
Format settings             : CABAC / 5 Ref Frames
Format settings, CABAC      : Yes
Format settings, ReFrames   : 5 frames
Codec ID                    : V_MPEG4/ISO/AVC
Duration                    : 1 h 57 min
Bit rate                    : 4 503 kb/s
Width                       : 1 920 pixels
Height                      : 804 pixels
Display aspect ratio        : 2.40:1
Frame rate mode             : Constant
Frame rate                  : 23.976 (23976/1000) FPS
Color space                 : YUV
Chroma subsampling          : 4:2:0
Bit depth                   : 8 bits
Scan type                   : Progressive
Bits/(Pixel*Frame)          : 0.122
Stream size                 : 3.71 GiB (85%)
Language                    : English
Default                     : Yes
Forced                      : No
Color range                 : Limited
Color primaries             : BT.709
Transfer characteristics    : BT.709
Matrix coefficients         : BT.709

Audio #1
ID                          : 2
Format                      : AC-3
Format/Info                 : Audio Coding 3
Commercial name             : Dolby Digital
Codec ID                    : A_AC3
Duration                    : 1 h 57 min
Bit rate mode               : Constant
Bit rate                    : 384 kb/s
Channel(s)                  : 6 channels
Channel layout              : L R C LFE Ls Rs
Sampling rate               : 48.0 kHz
Frame rate                  : 31.250 FPS (1536 SPF)
Bit depth                   : 16 bits
Compression mode            : Lossy
Stream size                 : 324 MiB (7%)
Title                       : iTunes
Language                    : Russian
Service kind                : Complete Main
Default                     : Yes
Forced                      : Yes

Audio #2
ID                          : 3
Format                      : AC-3
Format/Info                 : Audio Coding 3
Commercial name             : Dolby Digital
Codec ID                    : A_AC3
Duration                    : 1 h 57 min
Bit rate mode               : Constant
Bit rate                    : 384 kb/s
Channel(s)                  : 6 channels
Channel layout              : L R C LFE Ls Rs
Sampling rate               : 48.0 kHz
Frame rate                  : 31.250 FPS (1536 SPF)
Bit depth                   : 16 bits
Compression mode            : Lossy
Stream size                 : 324 MiB (7%)
Title                       : Original
Language                    : English
Service kind                : Complete Main
Default                     : No
Forced                      : No

Text #1
ID                          : 4
Format                      : UTF-8
Codec ID                    : S_TEXT/UTF8
Codec ID/Info               : UTF-8 Plain Text
Duration                    : 1 h 7 min
Bit rate                    : 0 b/s
Count of elements           : 3
Stream size                 : 203 Bytes (0%)
Title                       : Forced
Language                    : Russian
Default                     : Yes
Forced                      : Yes

Text #2
ID                          : 5
Format                      : UTF-8
Codec ID                    : S_TEXT/UTF8
Codec ID/Info               : UTF-8 Plain Text
Duration                    : 1 h 55 min
Bit rate                    : 118 b/s
Count of elements           : 1760
Stream size                 : 101 KiB (0%)
Title                       : Full
Language                    : Russian
Default                     : No
Forced                      : No

Text #3
ID                          : 6
Format                      : UTF-8
Codec ID                    : S_TEXT/UTF8
Codec ID/Info               : UTF-8 Plain Text
Duration                    : 1 h 54 min
Bit rate                    : 130 b/s
Count of elements           : 2304
Stream size                 : 110 KiB (0%)
Title                       : SDH
Language                    : Russian
Default                     : No
Forced                      : No

Text #4
ID                          : 7
Format                      : UTF-8
Codec ID                    : S_TEXT/UTF8
Codec ID/Info               : UTF-8 Plain Text
Duration                    : 1 h 54 min
Bit rate                    : 81 b/s
Count of elements           : 2326
Stream size                 : 68.8 KiB (0%)
Title                       : SDH
Language                    : English
Default                     : No
Forced                      : No

Text #5
ID                          : 8
Format                      : UTF-8
Codec ID                    : S_TEXT/UTF8
Codec ID/Info               : UTF-8 Plain Text
Duration                    : 1 h 54 min
Bit rate                    : 124 b/s
Count of elements           : 2325
Stream size                 : 105 KiB (0%)
Title                       : SDH Colored
Language                    : English
Default                     : No
Forced                      : No

Menu
00:00:00.000                : en:Tony Interrogation
00:03:22.000                : en:Incredibles vs Underminer
00:08:52.000                : en:Chewed Out
00:09:36.000                : en:Family Dinner
00:13:38.000                : en:Poolside
00:15:44.000                : en:Deavor Meets Supers
00:21:19.000                : en:Pillow Talk
00:23:27.000                : en:New House
00:27:08.000                : en:Where's Mom?
00:28:59.000                : en:Runaway Train
00:35:11.000                : en:Raccoon Fight
00:39:07.000                : en:Helen Checks In
00:42:44.000                : en:Tony Forgets
00:43:41.000                : en:Air Rescue
00:47:35.000                : en:Breakfast Blowup
00:48:52.000                : en:Triumph Return
00:54:15.000                : en:Vi Embarrassed
00:56:16.000                : en:Tracking Screenslaver
01:00:58.000                : en:Screenslaver Caught
01:02:02.000                : en:Breaking Point
01:06:55.000                : en:E The Babysitter
01:09:18.000                : en:Helen Reviews Footage
01:11:28.000                : en:Bob's Apology
01:12:37.000                : en:Helen Slips Away
01:14:39.000                : en:Auntie E
01:18:00.000                : en:Cold Room
01:20:32.000                : en:House Attack
01:25:01.000                : en:Kids Alone
01:27:59.000                : en:Super Signing
01:31:54.000                : en:Kids To The Rescue
01:33:26.000                : en:Trap Is Sprung
01:36:24.000                : en:Battle Royale
01:37:45.000                : en:Save The Day
01:43:57.000                : en:Resolution
01:45:36.000                : en:Epilogue
01:47:30.000                : en:End Credits



Скриншоты:
[+] Всего файлов в раздаче - 1:
Incredibles.2.2018.1080p.WEB-DL.TeamHD.mkv4.34 GB

Текущая раздача:
ДатаКомментарии    РазмерПиры
2018-10-26 U Суперсемейка 2 / Incredibles 2 (2018) WEB-DL 1080p от TeamHD | iTunes 4.34 GB ↑ 871 ↓ 458

Показать еще раздачи по запросу суперсемейка:
2018-11-06 U Суперсемейка 2 / Incredibles 2 (2018) BDRip от ExKinoRay | iTunes 2.13 GB ↑ 55 ↓ 9
2018-11-05 U Суперсемейка 2 / Incredibles 2 (2018) BDRip-AVC от HELLYWOOD | iTunes 1.41 GB ↑ 165 ↓ 50
2018-11-05 U Суперсемейка 2 / Incredibles 2 (2018) BDRip 1080p от Ash61 | 3D-Video | halfOU | iTunes 7.59 GB ↑ 154 ↓ 54
2018-11-05 U Суперсемейка 2 / Incredibles 2 (2018) BDRip от ExKinoRay | iTunes 1.41 GB ↑ 164 ↓ 33
2018-11-05 U Суперсемейка 2 / Incredibles 2 (2018) BDRip 1080p от qqss44 & MegaPeer | iTunes 1К5.26 GB ↑ 492 ↓ 149
2018-11-04 U Суперсемейка 2 / Incredibles 2 (2018) BDRip-HEVC 1080p от sm0tJay | iTunes 5.18 GB ↑ 90 ↓ 24
2018-11-03 U Суперсемейка 2 / Incredibles 2 (2018) BDRip-AVC от ExKinoRay | iTunes 2.27 GB ↑ 69 ↓ 28

Отзывы
Зарегистрируйтесь чтобы добавить комментарий.
Обратная связь
Copyleft ©