↑↓Torrent.by
Поиск
Логин: Регистрация
Пароль: Восстановить пароль
Загрузка...

Скорая помощь [01-20 из 20] (2018) SATRip-AVC

Скачать skoraya-pomosch-01-20-iz-2018-satrip-avc.torrent
U Магнитная ссылка Размер: 12.59 GB Раздают: 55 Качают: 21 Добавлен: 2018-10-26 19:13:21


>Информация о фильме
>Название: Скорая помощь
>Год выхода: 2018
>Жанр: мелодрама, триллер
>Режиссер: Богдан Дробязко

>В ролях: Гоша Куценко, Марина Доможирова, Александр Тютин, Пётр Баранчеев, Олег Тактаров, Екатерина Волкова, Александра Мельник, Александр Сергеев , Дмитрий Янышевский, Александр Никольский , Анастасия Моргун, Дмитрий Родонов, Дмитрий Калистратов, Наталья Фенкина, Елена Ковальчук, Алексей Смирнов , Александр Загоскин , Максим Деричев, Сергей Кириченко

>О фильме:
Сюжет истории разворачивается вокруг нового водителя "Скорой помощи", который начинает демонстрировать чудеса диагностики и врачебного искусства на вызовах, спасая немало человеческих жизней. По ходу развития истории выясняется, что он - высококвалифицированный врач, несправедливо лишённый лицензии, и теперь его задача - восстановить своё доброе имя и вернуться в профессию.


>Страна: Россия | РИМ
>Продолжительность: ~ 00:46:00
>Язык: Русский


>Файл
>Качество: SATRip-AVC
>Видео: MPEG-4 AVC, ~ 1700 Кбит/с, 720х400
>Звук: AC3, 2 ch, 192 Кбит/с







[+] "MediaInfo"

Общее
Уникальный идентификатор                 : 222717510069982997621036622443404156342 (0xA78DD509A355A542B1999CD3C29D5DB6)
Полное имя                               : E:Скорая помощь1 серия_Скорая помощь_rip by_Aleksan55.mkv
Формат                                   : Matroska
Версия формата                           : Version 2
Размер файла                             : 629 Мбайт
Продолжительность                        : 46 м. 24 с.
Общий поток                              : 1894 Кбит/сек
Дата кодирования                         : UTC 2018-10-15 14:48:59
Программа кодирования                    : mkvmerge v7.8.0 ('River Man') 32bit built on Apr  3 2015 12:11:22
Библиотека кодирования                   : libebml v1.3.1 + libmatroska v1.4.2

Видео
Идентификатор                            : 1
Формат                                   : AVC
Формат/Информация                        : Advanced Video Codec
Профиль формата                          : High@L4.1
Параметр CABAC формата                   : Да
Параметр ReFrames формата                : 14 кадров
Идентификатор кодека                     : V_MPEG4/ISO/AVC
Продолжительность                        : 46 м. 24 с.
Битрейт                                  : 1700 Кбит/сек
Ширина                                   : 720 пикселей
Высота                                   : 400 пикселей
Соотношение сторон                       : 16:9
Режим частоты кадров                     : Постоянный
Частота кадров                           : 25,000 кадров/сек
Цветовое пространство                    : YUV
Субдискретизация насыщенности            : 4:2:0
Битовая глубина                          : 8 бит
Тип развёртки                            : Прогрессивная
Бит/(Пиксели*Кадры)                      : 0.236
Размер потока                            : 552 Мбайт (88%)
Библиотека кодирования                   : x264 core 146 r2538 121396c
Настройки программы                      : cabac=1 / ref=14 / deblock=1:-1:-1 / analyse=0x3:0x133 / me=umh / subme=9 / psy=1 / psy_rd=0.90:0.00 / mixed_ref=0 / me_range=32 / chroma_me=1 / trellis=1 / 8x8dct=1 / cqm=0 / deadzone=21,11 / fast_pskip=0 / chroma_qp_offset=-2 / threads=12 / lookahead_threads=1 / sliced_threads=0 / nr=0 / decimate=0 / interlaced=0 / bluray_compat=0 / constrained_intra=0 / bframes=14 / b_pyramid=2 / b_adapt=1 / b_bias=0 / direct=3 / weightb=1 / open_gop=0 / weightp=2 / keyint=250 / keyint_min=25 / scenecut=40 / intra_refresh=0 / rc_lookahead=40 / rc=2pass / mbtree=1 / bitrate=1700 / ratetol=1.0 / qcomp=0.60 / qpmin=0 / qpmax=39 / qpstep=4 / cplxblur=20.0 / qblur=0.5 / ip_ratio=1.40 / aq=1:1.00
Default                                  : Да
Forced                                   : Нет
Цветовой диапазон                        : Limited
Основные цвета                           : BT.601 PAL
Характеристики трансфера                 : BT.470 System B, BT.470 System G
Коэффициенты матрицы                     : BT.601

Аудио
Идентификатор                            : 2
Формат                                   : AC-3
Формат/Информация                        : Audio Coding 3
Расширение режима                        : CM (complete main)
Параметр Endianness формата              : Big
Идентификатор кодека                     : A_AC3
Продолжительность                        : 46 м. 24 с.
Вид битрейта                             : Постоянный
Битрейт                                  : 192 Кбит/сек
Каналы                                   : 2 канала
Расположение каналов                     : Front: L R
Частота                                  : 48,0 КГц
Частота кадров                           : 31,250 кадров/сек (1536 spf)
Битовая глубина                          : 16 бит
Метод сжатия                             : С потерями
Размер потока                            : 63,7 Мбайт (10%)
Default                                  : Да
Forced                                   : Нет

[+] "Скриншоты"

         



[+] Всего файлов в раздаче - 20:
18 серия_Скорая помощь_rip by_Aleksan55.mkv627.61 MB
17 серия_Скорая помощь_rip by_Aleksan55.mkv617.79 MB
16 серия_Скорая помощь_rip by_Aleksan55.mkv662.77 MB
15 серия_Скорая помощь_rip by_Aleksan55.mkv662.56 MB
14 серия_Скорая помощь_rip by_Aleksan55.mkv634.41 MB
13 серия_Скорая помощь_rip by_Aleksan55.mkv625.75 MB
12 серия_Скорая помощь_rip by_Aleksan55.mkv676.27 MB
11 серия_Скорая помощь_rip by_Aleksan55.mkv627.77 MB
10 серия_Скорая помощь_rip by_Aleksan55.mkv643.00 MB
09 серия_Скорая помощь_rip by_Aleksan55.mkv655.25 MB
08 серия_Скорая помощь_rip by_Aleksan55.mkv641.71 MB
07 серия_Скорая помощь_rip by_Aleksan55.mkv668.48 MB
06 серия_Скорая помощь_rip by_Aleksan55.mkv628.98 MB
05 серия_Скорая помощь_rip by_Aleksan55.mkv641.57 MB
04 серия_Скорая помощь_rip by_Aleksan55.mkv647.22 MB
03 серия_Скорая помощь_rip by_Aleksan55.mkv663.11 MB
20 серия_Скорая помощь_rip by_Aleksan55.mkv645.29 MB
19 серия_Скорая помощь_rip by_Aleksan55.mkv630.51 MB
02 серия_Скорая помощь_rip by_Aleksan55.mkv660.59 MB
01 серия_Скорая помощь_rip by_Aleksan55.mkv628.60 MB

Показать еще раздачи по запросу скорая:
2018-10-27 U Скорая помощь [S01] (2018) WEBRip от GeneralFilm 10.88 GB ↑ 45 ↓ 153
2018-10-27 U Скорая помощь [01-20 из 20] (2018) SATRip 12.27 GB ↑ 314 ↓ 424
2018-10-25 U Скорая помощь [01-18 из 20] (2018) SATRip 11.06 GB ↑ 235 ↓ 918
2018-10-24 U Скорая помощь [01-16 из 20] (2018) SATRip 9.85 GB ↑ 511 ↓ 667
2018-10-23 U Скорая помощь [01-14 из 20] (2018) SATRip 8.59 GB ↑ 317 ↓ 1125
2018-10-23 U Скорая помощь [01-12 из 20] (2018) WEBRip 1080p от MediaClub 25.21 GB ↑ 31 ↓ 18
2018-10-23 U Скорая помощь [01-12 из 20] (2018) SATRip 7.39 GB ↑ 84 ↓ 164

Отзывы
Зарегистрируйтесь чтобы добавить комментарий.
Обратная связь
Copyleft ©