↑↓Torrent.by
Поиск
Логин: Регистрация
Пароль: Восстановить пароль
Загрузка...

Хакер / Hacker (2016) BDRip 1080p | L

Скачать haker-hacker-2016-bdrip-1080p-l.torrent
U Магнитная ссылка Размер: 8.20 GB Раздают: 91 Качают: 28 Добавлен: 2018-10-27 07:28:33
Хакер / Hacker (2016) BDRip 1080p | L

Название: Хакер
Оригинальное название: Hacker
Год выхода: 2016
Жанр: Триллер, драма, криминал
Режиссер: Акан Сатаев
В ролях: Каллэн МакОлифф, Лоррэйн Николсон, Дэниэл Эрик Голд, Клифтон Коллинз мл., Захари Беннетт, Влада Веревко, Геннадий Долганов, Райан Михельсен

О фильме:
Алекс вместе со своей семьей эмигрировал из Украины в Канаду в поисках лучшей жизни. Но когда в семье наступили финансовые затруднения, парень решает отомстить банку за увольнение матери, наказать коррумпированных банкиров и заодно заработать денег. Алекс вступает в криминальную интернет-организацию DarkWeb, где находит единомышленников и быстро осваивает искусство онлайн-мошенничества. Однако то, что сначала имело благородную цель, вскоре превращается в одержимое увлечение и привлекает внимание как правительства, так и опасных людей, возглавляющих DarkWeb. Основано на реальных событиях.

Страна: США, Таиланд, Казахстан, Гонконг, Канада
Студия: Sataifilm, Know Rules Media, Brillstein Entertainment Partners
Продолжительность: 01:47:36
Перевод: Любительский многоголосый | Синема УС

Файл
Кодек: x.264
Качество: BDRip 1080p
Видео: MPEG-4 AVC, 1920x800, 10.0 Mбит/с, 24.000 кадр/с
Звук: ► Релиз без Рекламы!
Аудио #1: Русский ( АС3, 6ch, 448 Кбит/с, 48.0 KHz) Любительский (многоголосый, закадровый) Синема УС
Аудио #2: Английский ( АС3, 6ch, 448 Кбит/с, 48.0 KHz)
Субтитры: английские


[+] MediaInfo
Источник: Hacker.2016.1080p.BluRay.x264.DTS-CHD
General
Unique ID                      : 190923298379024066088943959728471377989 (0x8FA27D5FCAFD9A4C9CC88733296F8845)
Complete name                  : Hacker.2016.BDRip.1080p.mkv
Format                         : Matroska
Format version                 : Version 4
File size                      : 8.20 GiB
Duration                       : 1 h 47 min
Overall bit rate               : 10.9 Mb/s
Encoded date                   : UTC 2018-10-26 10:35:33
Writing application            : mkvmerge v7.1.0 ('Good Love') 64bit built on Jul 27 2014 13:06:55
Writing library                : libebml v1.3.0 + libmatroska v1.4.1

Video
ID                             : 1
Format                         : AVC
Format/Info                    : Advanced Video Codec
Format profile                 : High@L4.1
Format settings                : CABAC / 4 Ref Frames
Format settings, CABAC         : Yes
Format settings, ReFrames      : 4 frames
Codec ID                       : V_MPEG4/ISO/AVC
Duration                       : 1 h 47 min
Bit rate                       : 10.0 Mb/s
Width                          : 1 920 pixels
Height                         : 800 pixels
Display aspect ratio           : 2.40:1
Frame rate mode                : Constant
Frame rate                     : 24.000 FPS
Color space                    : YUV
Chroma subsampling             : 4:2:0
Bit depth                      : 8 bits
Scan type                      : Progressive
Bits/(Pixel*Frame)             : 0.272
Stream size                    : 7.53 GiB (92%)
Writing library                : x264 core 149 r2771+45 509cceb 7mod [8-bit@all X86_64]
Encoding settings              : cabac=1 / ref=4 / deblock=1:-3:-3 / analyse=0x3:0x113 / me=umh / subme=10 / psy=1 / fade_compensate=0.00 / psy_rd=1.00:0.05 / mixed_ref=1 / me_range=48 / chroma_me=1 / trellis=2 / 8x8dct=1 / cqm=0 / deadzone=21,11 / fast_pskip=0 / chroma_qp_offset=-2 / threads=12 / lookahead_threads=2 / sliced_threads=0 / nr=0 / decimate=1 / interlaced=0 / bluray_compat=0 / constrained_intra=0 / fgo=0 / bframes=8 / b_pyramid=2 / b_adapt=2 / b_bias=0 / direct=3 / weightb=1 / open_gop=0 / weightp=2 / keyint=250 / keyint_min=24 / scenecut=40 / intra_refresh=0 / rc_lookahead=40 / rc=crf / mbtree=0 / crf=18.0000 / qcomp=0.60 / qpmin=0:0:0 / qpmax=69:69:69 / qpstep=4 / vbv_maxrate=35000 / vbv_bufsize=35000 / crf_max=0.0 / nal_hrd=none / filler=0 / ip_ratio=1.40 / pb_ratio=1.30 / aq=3:1.00 / aq-sensitivity=10.00 / aq-factor=1.00:1.00:1.00 / aq2=0 / aq3=2:[0.50:0.50]:[0.50:0.50]:[0.50:0.50]:[0.50:0.50] / aq3-sensitivity=10.00 / aq3-factor=[1.00:1.00]:[1.00:1.00]:[1.00:1.00] / aq3-boundary=192:64:24
Language                       : English
Default                        : Yes
Forced                         : No
Color range                    : Limited
Matrix coefficients            : BT.709

Audio #1
ID                             : 2
Format                         : AC-3
Format/Info                    : Audio Coding 3
Commercial name                : Dolby Digital
Codec ID                       : A_AC3
Duration                       : 1 h 47 min
Bit rate mode                  : Constant
Bit rate                       : 448 kb/s
Channel(s)                     : 6 channels
Channel layout                 : L R C LFE Ls Rs
Sampling rate                  : 48.0 kHz
Frame rate                     : 31.250 FPS (1536 SPF)
Bit depth                      : 16 bits
Compression mode               : Lossy
Stream size                    : 345 MiB (4%)
Language                       : Russian
Service kind                   : Complete Main
Default                        : Yes
Forced                         : No

Audio #2
ID                             : 3
Format                         : AC-3
Format/Info                    : Audio Coding 3
Commercial name                : Dolby Digital
Codec ID                       : A_AC3
Duration                       : 1 h 47 min
Bit rate mode                  : Constant
Bit rate                       : 448 kb/s
Channel(s)                     : 6 channels
Channel layout                 : L R C LFE Ls Rs
Sampling rate                  : 48.0 kHz
Frame rate                     : 31.250 FPS (1536 SPF)
Bit depth                      : 16 bits
Compression mode               : Lossy
Stream size                    : 345 MiB (4%)
Language                       : English
Service kind                   : Complete Main
Default                        : No
Forced                         : No

Text
ID                             : 4
Format                         : UTF-8
Codec ID                       : S_TEXT/UTF8
Codec ID/Info                  : UTF-8 Plain Text
Duration                       : 1 h 41 min
Bit rate                       : 79 b/s
Count of elements              : 1559
Stream size                    : 59.2 KiB (0%)
Language                       : English
Default                        : No
Forced                         : No

Menu
00:00:00.000                   : en:01
00:06:25.760                   : en:02
00:13:29.934                   : en:03
00:19:21.827                   : en:04
00:25:54.761                   : en:05
00:33:32.010                   : en:06
00:38:58.753                   : en:07
00:46:36.543                   : en:08
00:52:28.687                   : en:09
01:00:02.348                   : en:10
01:06:32.655                   : en:11
01:12:22.921                   : en:12
01:21:05.402                   : en:13
01:24:40.116                   : en:14
01:31:12.758                   : en:15
01:39:53.946                   : en:16



Скриншоты:
[+] Всего файлов в раздаче - 1:
Hacker.2016.BDRip.1080p.mkv8.20 GB

Показать еще раздачи по запросу хакер:
2019-06-23 U Хакер №05 (Май) [242] (2019) PDF 38.16 MB ↑ 43 ↓ 6
2019-05-29 U Хакер №04 (Апрель) (2019) PDF 51.99 MB ↑ 80 ↓ 6
2019-05-01 U Хакер №03 [240] (Март) (2019) PDF 37.74 MB ↑ 66 ↓ 9
2019-02-21 U Хакер №01 [238] (Январь) (2019) PDF 43.14 MB ↑ 105 ↓ 12
2019-02-03 U Хакер №12 [237] (Декабрь) (2018) PDF 59.93 MB ↑ 136 ↓ 13
2018-12-26 U Хакер / Hacker (2016) WEB-DLRip-AVC от OlLanDGroup | Локализованная версия | D 1.46 GB ↑ 67 ↓ 15
2018-10-27 U Хакер / Hacker (2016) WEB-DLRip от MegaPeer | Локализованная версия | D 1.46 GB ↑ 307 ↓ 59

Отзывы
Зарегистрируйтесь чтобы добавить комментарий.
Обратная связь
Copyleft ©