↑↓Torrent.by
Поиск
Логин: Регистрация
Пароль: Восстановить пароль
Загрузка...

Непрощенный (2018) WEB-DL 1080p

Скачать neproschennyy-2018-web-dl-1080p.torrent
U Магнитная ссылка Размер: 4.00 GB Раздают: 2111 Качают: 442 Добавлен: 2018-10-28 06:11:47
Непрощенный (2018) WEB-DL 1080p

Оригинальное название: Непрощенный
Год выпуска: 2018
Жанр:  Драма
Выпущено: Россия, Big Cinema House
Режиссер: Сарик Андреасян
В ролях: Дмитрий Нагиев, Марджан Аветисян, Самвел Мужикян, Роза Хайруллина, Карина Каграманян, Артём Шкляев, Михаил Горевой, Ирина Безрукова, Вадим Цаллати, Себастьян Сисак, Андрюс Паулавичюс, Микаэл Джанибекян, Оливье Сиу

О фильме:
Жизнь для инженера-строителя Виталия Калоева остановилась в ту самую секунду, когда самолет "Башкирских авиалиний", в котором летели его жена и дети, столкнулся над Боденским озером с транспортным самолетом. Не дождавшись семьи в аэропорту Барселоны, Виталий отправляется на место катастрофы — и находит их тела. Калоев теряет все, ради чего он жил. Теперь его некогда наполненный детским смехом дом — кладбище. Виталий ищет диспетчера, по вине которого погибла его семья, он хочет услышать слова извинения... Фильм основан на реальных событиях.

Продолжительность: 01:44:14
Перевод: Не требуется
Субтитры: Русские (вшитые на иностранную речь)

Формат: MKV
Качество: WEB-DL 1080p
Видео: AVC/H.264, 1920x804, 5 001 Kbps
Аудио: AC3, 384 Kbps, 48.0 KHz, 6 ch


[+] M/I
General
Unique ID                                : 217622530918777154444149317641715475845 (0xA3B8932BCB0E4A8AAA7351B2F7D66585)
Complete name                            : Neproschennyy.2018.WEB-DL.(1080p).Getty.mkv
Format                                   : Matroska
Format version                           : Version 4 / Version 2
File size                                : 4.00 GiB
Duration                                 : 1h 44mn
Overall bit rate                         : 5 495 Kbps
Movie name                               : Neproschennyy.2018.WEB-DL.(1080p).Getty
Encoded date                             : UTC 2018-10-26 23:20:45
Writing application                      : mkvmerge v7.8.0 ('River Man') 32bit built on Mar 27 2015 16:18:02
Writing library                          : libebml v1.3.1 + libmatroska v1.4.2
DURATION                                 : 01:44:14.400000000
NUMBER_OF_FRAMES                         : 195450
NUMBER_OF_BYTES                          : 300211200
_STATISTICS_WRITING_APP                  : mkvmerge v7.8.0 ('River Man') 32bit built on Mar 27 2015 16:18:02
_STATISTICS_WRITING_DATE_UTC             : 2018-10-26 23:20:45
_STATISTICS_TAGS                         : BPS DURATION NUMBER_OF_FRAMES NUMBER_OF_BYTES

Video
ID                                       : 1
Format                                   : AVC
Format/Info                              : Advanced Video Codec
Format profile                           : High@L4.0
Format settings, CABAC                   : Yes
Format settings, ReFrames                : 4 frames
Codec ID                                 : V_MPEG4/ISO/AVC
Duration                                 : 1h 44mn
Bit rate                                 : 5 001 Kbps
Width                                    : 1 920 pixels
Height                                   : 804 pixels
Display aspect ratio                     : 2.40:1
Frame rate mode                          : Constant
Frame rate                               : 25.000 fps
Color space                              : YUV
Chroma subsampling                       : 4:2:0
Bit depth                                : 8 bits
Scan type                                : Progressive
Bits/(Pixel*Frame)                       : 0.130
Stream size                              : 3.64 GiB (91%)
Default                                  : Yes
Forced                                   : No

Audio
ID                                       : 2
Format                                   : AC-3
Format/Info                              : Audio Coding 3
Mode extension                           : CM (complete main)
Format settings, Endianness              : Big
Codec ID                                 : A_AC3
Duration                                 : 1h 44mn
Bit rate mode                            : Constant
Bit rate                                 : 384 Kbps
Channel(s)                               : 6 channels
Channel positions                        : Front: L C R, Side: L R, LFE
Sampling rate                            : 48.0 KHz
Bit depth                                : 16 bits
Compression mode                         : Lossy
Stream size                              : 286 MiB (7%)
Default                                  : Yes
Forced                                   : No



Скриншоты:
[+] Всего файлов в раздаче - 1:
Neproschennyy.2018.WEB-DL.(1080p).Getty.mkv4.00 GB

Текущая раздача:
ДатаКомментарии    РазмерПиры
2018-10-28 U Непрощенный (2018) WEB-DL 1080p 4.00 GB ↑ 2111 ↓ 442

Показать еще раздачи по запросу непрощенный:
2018-10-29 U Непрощенный (2018) WEB-DLRip-AVC от GeneralFilm 1.32 GB ↑ 72 ↓ 22
2018-10-29 U Непрощенный (2018) WEB-DLRip от Scarabey 781.85 MB ↑ 46 ↓ 24
2018-10-29 U Непрощенный (2018) WEB-DLRip от Scarabey 1.42 GB ↑ 461 ↓ 187
2018-10-28 U Непрощенный (2018) WEB-DLRip от Portablius 1К745.70 MB ↑ 93 ↓ 8
2018-10-28 U Непрощенный (2018) WEB-DLRip-AVC от OlLanDGroup 1К1.62 GB ↑ 234 ↓ 40
2018-10-28 U Непрощенный (2018) WEB-DLRip от GeneralFilm 746.10 MB ↑ 141 ↓ 33
2018-10-28 U Непрощенный (2018) WEB-DLRip от GeneralFilm 2К1.46 GB ↑ 172 ↓ 51

Отзывы
Зарегистрируйтесь чтобы добавить комментарий.
Обратная связь
Copyleft ©