↑↓Torrent.by
Поиск
Логин: Регистрация
Пароль: Восстановить пароль
Загрузка...

Непрощенный (2018) WEB-DLRip от GeneralFilm

Скачать neproschennyy-2018-web-dlrip-ot-generalfilm.torrent
U Магнитная ссылка Размер: 746.10 MB Раздают: 143 Качают: 33 Добавлен: 2018-10-28 06:12:30
Непрощенный (2018) WEB-DLRip от GeneralFilm

Информация о фильме
Название: Непрощенный
Год выпуска: 2018
Жанр: Драма
Режиссер: Сарик Андреасян
В ролях: Дмитрий Нагиев, Марджан Аветисян, Самвел Мужикян, Роза Хайруллина, Карина Каграманян, Артём Шкляев, Михаил Горевой, Ирина Безрукова, Вадим Цаллати, Себастьян Сисак, Андрюс Паулавичюс, Микаэл Джанибекян, Оливье Сиу

О фильме:
Жизнь для инженера-строителя Виталия Калоева остановилась в ту самую секунду, когда самолет «Башкирских авиалиний», в котором летели его жена и дети, столкнулся над Боденским озером с транспортным бортом. Не дождавшись семьи в аэропорту Барселоны, Виталий отправляется на место катастрофы, где находит тела своих родных. Калоев теряет все, ради чего жил. Не дождавшись справедливого решения суда, Виталий ищет диспетчера, по вине которого погибла его семья…

Страна: Россия
Студия: Big Cinema House
Продолжительность: 01:44:14
Язык: Русский
Субтитры: Русские (хардсаб на английскую речь)

Файл
Формат: avi
Качество: WEB-DLRip
Видео: XviD build 73, 688x288 (2.40:1), 25.000 fps, 799 Kbps (0.161 bit/pixel)
Звук: 48.0 kHz, AC3, 2/0 ch, 192 kbps

Релиз:


[+] MediaInfo
General
Complete name               : D:RazdachiNeproshennyj.2018.XviD.745Mb.WEB-DLRip.GeneralFilm.avi
Format                      : AVI
Format/Info                 : Audio Video Interleave
File size                   : 746 MiB
Duration                    : 1 h 44 min
Overall bit rate            : 1 001 kb/s
Writing application         : VirtualDubMod 1.5.10.3 | www.virtualdub-fr.org || (build 2550/release)
Writing library             : VirtualDubMod build 2550/release

Video
ID                          : 0
Format                      : MPEG-4 Visual
Format profile              : Advanced Simple@L5
Format settings, BVOP       : 1
Format settings, QPel       : No
Format settings, GMC        : No warppoints
Format settings, Matrix     : Custom
Codec ID                    : XVID
Codec ID/Hint               : XviD
Duration                    : 1 h 44 min
Bit rate                    : 799 kb/s
Width                       : 688 pixels
Height                      : 288 pixels
Display aspect ratio        : 2.40:1
Frame rate                  : 25.000 FPS
Color space                 : YUV
Chroma subsampling          : 4:2:0
Bit depth                   : 8 bits
Scan type                   : Progressive
Compression mode            : Lossy
Bits/(Pixel*Frame)          : 0.161
Stream size                 : 596 MiB (80%)
Writing library             : XviD 73

Audio
ID                          : 1
Format                      : AC-3
Format/Info                 : Audio Coding 3
Format settings, Endianness : Big
Codec ID                    : 2000
Duration                    : 1 h 44 min
Bit rate mode               : Constant
Bit rate                    : 192 kb/s
Channel(s)                  : 2 channels
Channel positions           : Front: L R
Sampling rate               : 48.0 kHz
Frame rate                  : 31.250 FPS (1536 SPF)
Bit depth                   : 16 bits
Compression mode            : Lossy
Stream size                 : 143 MiB (19%)
Alignment                   : Split accross interleaves
Interleave, duration        : 40  ms (1.00 video frame)
Interleave, preload duratio : 500  ms
Service kind                : Complete Main



Скриншоты:
[+] Всего файлов в раздаче - 1:
Neproshennyj.2018.XviD.745Mb.WEB-DLRip.GeneralFilm.avi746.10 MB

Текущая раздача:
ДатаКомментарии    РазмерПиры
2018-10-28 U Непрощенный (2018) WEB-DLRip от GeneralFilm 746.10 MB ↑ 143 ↓ 33

Показать еще раздачи по запросу непрощенный:
2018-10-29 U Непрощенный (2018) WEB-DLRip-AVC от GeneralFilm 1.32 GB ↑ 76 ↓ 23
2018-10-29 U Непрощенный (2018) WEB-DLRip от Scarabey 781.85 MB ↑ 46 ↓ 24
2018-10-29 U Непрощенный (2018) WEB-DLRip от Scarabey 1.42 GB ↑ 462 ↓ 188
2018-10-28 U Непрощенный (2018) WEB-DLRip от Portablius 1К745.70 MB ↑ 94 ↓ 8
2018-10-28 U Непрощенный (2018) WEB-DLRip-AVC от OlLanDGroup 1К1.62 GB ↑ 249 ↓ 40
2018-10-28 U Непрощенный (2018) WEB-DLRip от GeneralFilm 2К1.46 GB ↑ 172 ↓ 51
2018-10-28 U Непрощенный (2018) WEB-DL 1080p 4.00 GB ↑ 2117 ↓ 442

Отзывы
Зарегистрируйтесь чтобы добавить комментарий.
Обратная связь
Copyleft ©