↑↓Torrent.by
Поиск
Логин: Регистрация
Пароль: Восстановить пароль
Загрузка...

Непрощенный (2018) WEB-DLRip-AVC от OlLanDGroup

Скачать neproschennyy-2018-web-dlrip-avc-ot-ollandgroup.torrent
U Магнитная ссылка Размер: 1.62 GB Раздают: 234 Качают: 40 Добавлен: 2018-10-28 06:12:38
Непрощенный (2018) WEB-DLRip-AVC от OlLanDGroup

Непрощенный
«Весна близко»

Год выпуска: 2018
Страна: Россия
Производство: Big Cinema House
Жанр:  Драма

Режиссёр: Сарик Андреасян
В ролях: Дмитрий Нагиев, Марджан Аветисян, Самвел Мужикян, Роза Хайруллина, Карина Каграманян, Артём Шкляев, Михаил Горевой, Ирина Безрукова, Вадим Цаллати, Себастьян Сисак, Андрюс Паулавичюс, Микаэл Джанибекян, Оливье Сиу

Перевод: Не требуется
Субтитры: Нет
Реклама: Отсутствует

Описание: Жизнь для инженера-строителя Виталия Калоева остановилась в ту самую секунду, когда самолет "Башкирских авиалиний", в котором летели его жена и дети, столкнулся над Боденским озером с транспортным самолетом. Не дождавшись семьи в аэропорту Барселоны, Виталий отправляется на место катастрофы — и находит их тела. Калоев теряет все, ради чего он жил. Теперь его некогда наполненный детским смехом дом — кладбище. Виталий ищет диспетчера, по вине которого погибла его семья, он хочет услышать слова извинения... Фильм основан на реальных событиях.

Качество: WEB-DLRip-AVC
Продолжительность: 01:44:14

Формат: MKV
Видео кодек: MPEG-4 AVC
Аудио кодек: AC3
Видео: 1024x428 (2.40:1), 25,000 fps, x264 ~1 839 kbps avg, 0.168 bit/pixel
Аудио: 48 kHz, AC3 Dolby Digital, 3/2 (L,C,R,l,r) + LFE ch, ~384.00 kbps avg | RUS

Дата премьеры (мир): 12 сентября 2018
Дата премьеры (РФ): 27 сентября 2018, «Каропрокат»

Релиз: Rip by:


[+] MediaInfo

Общее
Уникальный идентификатор                 : 151633453048576592897093162727671804969 (0x72138A7089FC590A51100FD530933429)
Полное имя                               : F:OlLanDGroupNeproschennyy.2018.WEB-DLRip(AVC).OlLanDGroup.mkv
Формат                                   : Matroska
Версия формата                           : Version 4 / Version 2
Размер файла                             : 1,62 Гбайт
Продолжительность                        : 1 ч. 44 м.
Общий поток                              : 2224 Кбит/сек
Название фильма                          : Neproschennyy.2018.WEB-DL.(1080p).Getty
Дата кодирования                         : UTC 2018-10-27 14:16:12
Программа кодирования                    : mkvmerge v25.0.0 ('Prog Noir') 64-bit
Библиотека кодирования                   : libebml v1.3.6 + libmatroska v1.4.9

Видео
Идентификатор                            : 1
Формат                                   : AVC
Формат/Информация                        : Advanced Video Codec
Профиль формата                          : High@L4.1
Параметр CABAC формата                   : Да
Параметр ReFrames формата                : 10 кадров
Идентификатор кодека                     : V_MPEG4/ISO/AVC
Продолжительность                        : 1 ч. 44 м.
Битрейт                                  : 1839 Кбит/сек
Ширина                                   : 1024 пикселя
Высота                                   : 428 пикселей
Соотношение сторон                       : 2,40:1
Режим частоты кадров                     : Постоянный
Частота кадров                           : 25,000 кадров/сек
Цветовое пространство                    : YUV
Субдискретизация насыщенности            : 4:2:0
Битовая глубина                          : 8 бит
Тип развёртки                            : Прогрессивная
Бит/(Пиксели*Кадры)                      : 0.168
Размер потока                            : 1,34 Гбайт (83%)
Библиотека кодирования                   : x264 core 146 r2538 121396c
Настройки программы                      : cabac=1 / ref=10 / deblock=1:-2:-3 / analyse=0x3:0x113 / me=umh / subme=11 / psy=1 / psy_rd=0.95:0.07 / mixed_ref=1 / me_range=48 / chroma_me=1 / trellis=2 / 8x8dct=1 / cqm=0 / deadzone=21,11 / fast_pskip=1 / chroma_qp_offset=-3 / threads=6 / lookahead_threads=1 / sliced_threads=0 / nr=0 / decimate=1 / interlaced=0 / bluray_compat=0 / constrained_intra=0 / bframes=10 / b_pyramid=2 / b_adapt=2 / b_bias=0 / direct=3 / weightb=1 / open_gop=0 / weightp=2 / keyint=250 / keyint_min=25 / scenecut=40 / intra_refresh=0 / rc_lookahead=40 / rc=2pass / mbtree=0 / bitrate=1839 / ratetol=1.0 / qcomp=0.60 / qpmin=0 / qpmax=69 / qpstep=4 / cplxblur=20.0 / qblur=0.5 / vbv_maxrate=50000 / vbv_bufsize=62500 / nal_hrd=none / filler=0 / ip_ratio=1.40 / pb_ratio=1.30 / aq=1:1.00
Язык                                     : English
Default                                  : Да
Forced                                   : Нет

Аудио
Идентификатор                            : 2
Формат                                   : AC-3
Формат/Информация                        : Audio Coding 3
Расширение режима                        : CM (complete main)
Параметр Endianness формата              : Big
Идентификатор кодека                     : A_AC3
Продолжительность                        : 1 ч. 44 м.
Вид битрейта                             : Постоянный
Битрейт                                  : 384 Кбит/сек
Каналы                                   : 6 каналов
Расположение каналов                     : Front: L C R, Side: L R, LFE
Частота                                  : 48,0 КГц
Частота кадров                           : 31,250 кадров/сек (1536 spf)
Битовая глубина                          : 16 бит
Метод сжатия                             : С потерями
Размер потока                            : 286 Мбайт (17%)
Язык                                     : Russian
Default                                  : Да
Forced                                   : Нет



Скриншоты:
[+] Всего файлов в раздаче - 1:
Neproschennyy.2018.WEB-DLRip(AVC).OlLanDGroup.mkv1.62 GB

Текущая раздача:
ДатаКомментарии    РазмерПиры
2018-10-28 U Непрощенный (2018) WEB-DLRip-AVC от OlLanDGroup 1 К 1.62 GB ↑ 234 ↓ 40

Показать еще раздачи по запросу непрощенный:
2018-10-29 U Непрощенный (2018) WEB-DLRip-AVC от GeneralFilm 1.32 GB ↑ 72 ↓ 22
2018-10-29 U Непрощенный (2018) WEB-DLRip от Scarabey 781.85 MB ↑ 46 ↓ 24
2018-10-29 U Непрощенный (2018) WEB-DLRip от Scarabey 1.42 GB ↑ 461 ↓ 187
2018-10-28 U Непрощенный (2018) WEB-DLRip от Portablius 1К745.70 MB ↑ 93 ↓ 8
2018-10-28 U Непрощенный (2018) WEB-DLRip от GeneralFilm 746.10 MB ↑ 141 ↓ 33
2018-10-28 U Непрощенный (2018) WEB-DLRip от GeneralFilm 2К1.46 GB ↑ 172 ↓ 51
2018-10-28 U Непрощенный (2018) WEB-DL 1080p 4.00 GB ↑ 2111 ↓ 442

Отзывы
13max1313
Хороший фильм, совет, кто не видел,очень "ТЯЖЕЛОЕ" кино! Но к просмотру стоит,кто бы чего не говорил! Рекомендую!

Зарегистрируйтесь чтобы добавить комментарий.
Обратная связь
Copyleft ©