↑↓Torrent.by
Поиск
Логин: Регистрация
Пароль: Восстановить пароль
Загрузка...

Непрощенный (2018) WEB-DLRip от Portablius

Скачать neproschennyy-2018-web-dlrip-ot-portablius.torrent
U Магнитная ссылка Размер: 745.70 MB Раздают: 93 Качают: 8 Добавлен: 2018-10-28 06:13:21
Непрощенный (2018) WEB-DLRip от Portablius

Название: Непрощенный
Год выхода: 2018
Жанр: Драма
Режиссер: Сарик Андреасян
В ролях: Дмитрий Нагиев, Марджан Аветисян, Самвел Мужикян, Роза Хайруллина, Карина Каграманян, Артём Шкляев, Михаил Горевой, Ирина Безрукова, Вадим Цаллати, Себастьян Сисак, Андрюс Паулавичюс, Микаэл Джанибекян, Оливье Сиу

О фильме: Жизнь для инженера-строителя Виталия Калоева остановилась в ту самую секунду, когда самолет "Башкирских авиалиний", в котором летели его жена и дети, столкнулся над Боденским озером с транспортным самолетом. Не дождавшись семьи в аэропорту Барселоны, Виталий отправляется на место катастрофы — и находит их тела. Калоев теряет все, ради чего он жил. Теперь его некогда наполненный детским смехом дом — кладбище. Виталий ищет диспетчера, по вине которого погибла его семья, он хочет услышать слова извинения... Фильм основан на реальных событиях.

Страна: Россия
Студия: Big Cinema House
Продолжительность: 01:44:14
Перевод: Не требуется
Субтитры: Русские (хардсаб на английскую речь)

Файл
Кодек: XviD
Качество: WEB-DLRip
Видео: 720x304 (2.37:1), 25 fps, XviD build 73 ~862 kbps avg, 0.16 bit/pixel
Звук: 48 kHz, MPEG Layer 3, 2 ch, ~128.00 kbps avg


[+] MediaInfo
General
Complete name               : Neproschennyy.2018.WEB-DLRip.ot.Portablius.avi
Format                      : AVI
Format/Info                 : Audio Video Interleave
File size                   : 746 MiB
Duration                    : 1 h 44 min
Overall bit rate            : 1 000 kb/s
Writing application         : VirtualDubMod 1.5.10.3 | www.virtualdub-fr.org || (build 2550/release)
Writing library             : VirtualDubMod build 2550/release

Video
ID                          : 0
Format                      : MPEG-4 Visual
Format profile              : Advanced Simple@L5
Format settings, BVOP       : 1
Format settings, QPel       : No
Format settings, GMC        : No warppoints
Format settings, Matrix     : Custom
Codec ID                    : XVID
Codec ID/Hint               : XviD
Duration                    : 1 h 44 min
Bit rate                    : 862 kb/s
Width                       : 720 pixels
Height                      : 304 pixels
Display aspect ratio        : 2.35:1
Frame rate                  : 25.000 FPS
Color space                 : YUV
Chroma subsampling          : 4:2:0
Bit depth                   : 8 bits
Scan type                   : Progressive
Compression mode            : Lossy
Bits/(Pixel*Frame)          : 0.158
Stream size                 : 643 MiB (86%)
Writing library             : XviD 73

Audio
ID                          : 1
Format                      : MPEG Audio
Format version              : Version 1
Format profile              : Layer 3
Codec ID                    : 55
Codec ID/Hint               : MP3
Duration                    : 1 h 44 min
Bit rate mode               : Constant
Bit rate                    : 128 kb/s
Channel(s)                  : 2 channels
Sampling rate               : 48.0 kHz
Compression mode            : Lossy
Stream size                 : 95.4 MiB (13%)
Alignment                   : Aligned on interleaves
Interleave, duration        : 40  ms (1.00 video frame)
Interleave, preload duratio : 504  ms
Writing library             : LAME3.99r
Encoding settings           : -m s -V 4 -q 2 -lowpass 17 -b 128




Скриншоты:
[+] Всего файлов в раздаче - 1:
Neproschennyy.2018.WEB-DLRip.ot.Portablius.avi745.70 MB

Текущая раздача:
ДатаКомментарии    РазмерПиры
2018-10-28 U Непрощенный (2018) WEB-DLRip от Portablius 1 К 745.70 MB ↑ 93 ↓ 8

Показать еще раздачи по запросу непрощенный:
2018-10-29 U Непрощенный (2018) WEB-DLRip-AVC от GeneralFilm 1.32 GB ↑ 72 ↓ 22
2018-10-29 U Непрощенный (2018) WEB-DLRip от Scarabey 781.85 MB ↑ 46 ↓ 24
2018-10-29 U Непрощенный (2018) WEB-DLRip от Scarabey 1.42 GB ↑ 461 ↓ 187
2018-10-28 U Непрощенный (2018) WEB-DLRip-AVC от OlLanDGroup 1К1.62 GB ↑ 234 ↓ 40
2018-10-28 U Непрощенный (2018) WEB-DLRip от GeneralFilm 746.10 MB ↑ 141 ↓ 33
2018-10-28 U Непрощенный (2018) WEB-DLRip от GeneralFilm 2К1.46 GB ↑ 172 ↓ 51
2018-10-28 U Непрощенный (2018) WEB-DL 1080p 4.00 GB ↑ 2111 ↓ 442

Отзывы
Plamen6812
Хороший фильм, совет, кто не видел,очень "ТЯЖЕЛОЕ" кино! Но к просмотру стоит,кто бы чего не говорил! Рекомендую!

Зарегистрируйтесь чтобы добавить комментарий.
Обратная связь
Copyleft ©