↑↓Torrent.by
Поиск
Логин: Регистрация
Пароль: Восстановить пароль
Загрузка...

Вечерний квартал [111] (2018) WEBRip от GeneralFilm

Скачать vecherniy-kvartal-111-2018-webrip-ot-generalfilm.torrent
U Магнитная ссылка Размер: 1.09 GB Раздают: 105 Качают: 58 Добавлен: 2018-10-29 07:09:45
Вечерний квартал [111] (2018) WEBRip от GeneralFilm

Оригинальное название: Вечерний квартал
Год выпуска: 2018
Жанр:  Юмористическое шоу, концерт, сатира
Режиссер: Студия 95 квартал
В ролях: Владимир Зеленский, Юрий Крапов, Денис Манжосов, Елена Кравец, Евгений Кошевой, Сергей Казанин, Александр Пикалов, Юрий Корявченков, Аркадий Лапухин

О фильме: Однажды веселые ребята из "95-го квартала" решили отметить свой переезд из родного Кривого Рога в Киев, а заодно 10-летие команды новым шоу. Коллектив подобрался душевный, "с огоньком", гости - сплошь знаменитые, а столичная публика - щедрая на аплодисменты. Так родилась самая смешная и популярная передача на отечественном телевидении - "Вечерний квартал". Идея шоу проста: в городе N есть некий модный квартал, в котором тусуются девять смешных жителей. Остальные просто приходят к ним в гости. Правда, гости не совсем обычные: среди них встречаются и богатые, и знаменитые, политики, и дизайнеры, и поп-звезды. Главный критерий - наличие здорового чувства юмора. Без него - никак, так как гостей здесь встречают не хлебом-солью, а розыгрышами и подколками, а те в свою очередь участвуют в скетчах и исполняют музыкальные или танцевальные номера.

Страна: Украина
Студия: Студия 95 квартал
Продолжительность: 01:30:32
Перевод: Не требуется
Субтитры: нет

Файл
Формат: avi
Качество: WEBRip
Видео: XviD build 73, 720x400 (16:9), 25.000 fps, 1518 Kbps (0.211 bit/pixel)
Звук: 48.0 kHz, AC3, 2/0 ch, 192 kbps

Релиз:
[+] Содержание
00:57 Владимир Зеленский, Официально, о ПРЕЗИДЕНСТВЕ
10:34 ПЕТРО, Хватит Пить Вино!
13:11 Кличко на КРИПТОВАЛЮТНОМ ФОРУМЕ - Политическое Дискавери
18:23 Ритмично-Выразительная Херня - Пародия на Танцы со Звёздами
32:35 Саундтрек к сериалу ШКОЛА, 75 сезон (Антитела и Жека)
39:42 Как КОЛОМОЙСКИЙ и АХМЕТОВ ПРЕЗИДЕНТОВ выбирают
49:19 Гастроли Советских Артистов в Сопровождении КГБ
54:38 Ни денег, ни хрена - Мужики после смены пола
1:05:09 Не ссы в трусы, малая! Love Story спального района
1:10:07 Претендент на ПОРОХОЗАМЕНИТЕЛЯ - Иво Бобул на Сербском Телевидении
1:19:04 Обзор Зарубежных Хитов на Радио Промінь
1:22:22 Ода Расставания с Властью
1:27:14 Не Простая, но ЛЮБИМАЯ Страна - Финальная Песня



[+] MediaInfo
General
Complete name               : D:RazdachiKvartal.111.XviD.WEBRip.GeneralFilm.avi
Format                      : AVI
Format/Info                 : Audio Video Interleave
File size                   : 1.09 GiB
Duration                    : 1 h 30 min
Overall bit rate            : 1 720 kb/s
Writing application         : VirtualDubMod 1.5.10.3 | www.virtualdub-fr.org || (build 2550/release)
Writing library             : VirtualDubMod build 2550/release

Video
ID                          : 0
Format                      : MPEG-4 Visual
Format profile              : Advanced Simple@L5
Format settings, BVOP       : 1
Format settings, QPel       : No
Format settings, GMC        : No warppoints
Format settings, Matrix     : Custom
Codec ID                    : XVID
Codec ID/Hint               : XviD
Duration                    : 1 h 30 min
Bit rate                    : 1 518 kb/s
Width                       : 720 pixels
Height                      : 400 pixels
Display aspect ratio        : 16:9
Frame rate                  : 25.000 FPS
Color space                 : YUV
Chroma subsampling          : 4:2:0
Bit depth                   : 8 bits
Scan type                   : Progressive
Compression mode            : Lossy
Bits/(Pixel*Frame)          : 0.211
Stream size                 : 983 MiB (88%)
Writing library             : XviD 73

Audio
ID                          : 1
Format                      : AC-3
Format/Info                 : Audio Coding 3
Format settings, Endianness : Big
Codec ID                    : 2000
Duration                    : 1 h 30 min
Bit rate mode               : Constant
Bit rate                    : 192 kb/s
Channel(s)                  : 2 channels
Channel positions           : Front: L R
Sampling rate               : 48.0 kHz
Frame rate                  : 31.250 FPS (1536 SPF)
Bit depth                   : 16 bits
Compression mode            : Lossy
Stream size                 : 124 MiB (11%)
Alignment                   : Split accross interleaves
Interleave, duration        : 40  ms (1.00 video frame)
Interleave, preload duratio : 500  ms
Service kind                : Complete Main



Скриншоты:
[+] Всего файлов в раздаче - 1:
Kvartal.111.XviD.WEBRip.GeneralFilm.avi1.09 GB

Текущая раздача:
ДатаКомментарии    РазмерПиры
2018-10-29 U Вечерний квартал [111] (2018) WEBRip от GeneralFilm 1.09 GB ↑ 105 ↓ 58

Показать еще раздачи по запросу вечерний:
2018-11-04 U Вечерний квартал [112] (2018) WEBRip от GeneralFilm 1.09 GB ↑ 15 ↓ 24
2018-05-20 U Вечерний квартал [110] (2018) WEBRip от GeneralFilm 744.51 MB ↑ 162 ↓ 74
2018-05-14 U Вечерний квартал [109] (2018) WEBRip от GeneralFilm 744.29 MB ↑ 113 ↓ 47
2018-03-25 U Вечерний квартал [108] (2018) WEBRip от GeneralFilm 744.99 MB ↑ 143 ↓ 47
2018-03-25 U Вечерний квартал [108] (2018) WEBRip 1.20 GB ↑ 194 ↓ 73
2018-03-25 U Вечерний квартал [108] (2018) WEBRip 1080p 2.39 GB ↑ 113 ↓ 87
2018-03-18 U Вечерний квартал [107] (2018) WEBRip от GeneralFilm 744.53 MB ↑ 139 ↓ 65

Отзывы
Зарегистрируйтесь чтобы добавить комментарий.
Обратная связь
Copyleft ©