↑↓Torrent.by
Поиск
Логин: Регистрация
Пароль: Восстановить пароль
Загрузка...

22 мили / Mile 22 (2018) WEB-DL 720p от селезень | iTunes

Скачать 22-mili-mile-2018-web-dl-720p-ot-selezen-itunes.torrent
U Магнитная ссылка Размер: 2.92 GB Раздают: 507 Качают: 255 Добавлен: 2018-10-30 09:41:51
22 мили / Mile 22 (2018) WEB-DL 720p от селезень | iTunes

Название: 22 мили
Оригинальное название: Mile 22
Год выхода: 2018
Жанр: Боевик, триллер
Режиссер: Питер Берг
В ролях: Марк Уолберг, Лорен Коэн, Ико Уайс, Джон Малкович, Ронда Раузи, Карло Альбан, Сиэль, Сэм Медина, Кит А. Болден

О фильме: Призраки — элитный отряд сверхсекретной разведки: официально они не существуют, но на самом деле — реальны. Они решают задачи, когда старые методы уже не работают, и всегда добиваются поставленной цели. Суперагенту отряда при поддержке ЦРУ предстоит непростая миссия: тайно вывести из Индонезии полицейского, владеющего доказательствами коррупции в высших политических кругах. До спасительного самолета им предстоит преодолеть 22 смертельно опасные мили.

Страна: США
Студия: Closest to the Hole Productions
Продолжительность: 01:34:25
Перевод: Дублированный | iTunes

Качество: WEB-DL 720p
Видео: MPEG-4 AVC, 1280x530, 4046 Kbit/s, 23.976 fps
Звук:
Аудио: 48 kHz, AC3, 5.1, 384 Kbps | iTunes | RUS |

Автор релиза:


[+] MI
General
Unique ID                   : 117472692278346567708457722451669181098 (0x58606AE5E94009C0B5923784986662AA)
Complete name               : D:Video111Mile.22.720p.WEB-DL.selezen.mkv
Format                      : Matroska
Format version              : Version 4
File size                   : 2.92 GiB
Duration                    : 1 h 34 min
Overall bit rate            : 4 432 kb/s
Movie name                  : Mile 22 2018 From селезень
Encoded date                : UTC 2018-10-29 18:37:05
Writing application         : mkvmerge v28.0.0 ('Voice In My Head') 64-bit
Writing library             : libebml v1.3.6 + libmatroska v1.4.9

Video
ID                          : 1
Format                      : AVC
Format/Info                 : Advanced Video Codec
Format profile              : Main@L3.1
Format settings             : 2 Ref Frames
Format settings, CABAC      : No
Format settings, ReFrames   : 2 frames
Codec ID                    : V_MPEG4/ISO/AVC
Duration                    : 1 h 34 min
Bit rate                    : 4 046 kb/s
Width                       : 1 280 pixels
Height                      : 530 pixels
Display aspect ratio        : 2.40:1
Frame rate mode             : Constant
Frame rate                  : 23.976 FPS
Color space                 : YUV
Chroma subsampling          : 4:2:0
Bit depth                   : 8 bits
Scan type                   : Progressive
Bits/(Pixel*Frame)          : 0.249
Stream size                 : 2.67 GiB (91%)
Language                    : English
Default                     : Yes
Forced                      : No
Color range                 : Limited
Color primaries             : BT.709
Transfer characteristics    : BT.709
Matrix coefficients         : BT.709

Audio
ID                          : 2
Format                      : AC-3
Format/Info                 : Audio Coding 3
Commercial name             : Dolby Digital
Codec ID                    : A_AC3
Duration                    : 1 h 34 min
Bit rate mode               : Constant
Bit rate                    : 384 kb/s
Channel(s)                  : 6 channels
Channel layout              : L R C LFE Ls Rs
Sampling rate               : 48.0 kHz
Frame rate                  : 31.250 FPS (1536 SPF)
Bit depth                   : 16 bits
Compression mode            : Lossy
Stream size                 : 259 MiB (9%)
Title                       : iTunes
Language                    : Russian
Service kind                : Complete Main
Default                     : Yes
Forced                      : Yes

Menu
00:00:00.000                : en:1
00:12:12.000                : en:2
00:21:43.000                : en:3
00:30:41.000                : en:4
00:42:54.000                : en:5
00:52:46.000                : en:6
01:03:47.000                : en:7
01:13:07.000                : en:8
01:26:47.000                : en:9



Скриншоты:
[+] Всего файлов в раздаче - 1:
Mile.22.720p.WEB-DL.selezen.mkv2.92 GB

Текущая раздача:
ДатаКомментарии    РазмерПиры
2018-10-30 U 22 мили / Mile 22 (2018) WEB-DL 720p от селезень | iTunes 2.92 GB ↑ 507 ↓ 255

Похожие раздачи по запросу - мили:
2018-11-01 U 22 мили / Mile 22 (2018) WEB-DLRip от Scarabey | iTunes 1.45 GB ↑ 117 ↓ 40
2018-10-30 U 22 мили / Mile 22 (2018) WEB-DLRip-AVC от OlLanDGroup | iTunes 1.50 GB ↑ 194 ↓ 70
2018-10-30 U 22 мили / Mile 22 (2018) WEB-DLRip от MegaPeer | iTunes 1.46 GB ↑ 1787 ↓ 789
2018-10-30 U 22 мили / Mile 22 (2018) WEB-DL 1080p от TeamHD | iTunes 3.27 GB ↑ 1839 ↓ 870
2018-10-16 U 22 мили / Mile 22 (2018) TS-AVC | L2 1.01 GB ↑ 301 ↓ 55

Отзывы
Зарегистрируйтесь чтобы добавить комментарий.
Обратная связь
Copyleft ©