↑↓Torrent.by
Поиск
Логин: Регистрация
Пароль: Восстановить пароль
Загрузка...

Горные огни / The Body Tree (2017) WEB-DL 1080p | iTunes

Скачать gornye-ogni-the-body-tree-2017-web-dl-1080p-itunes.torrent
U Магнитная ссылка Размер: 3.49 GB Раздают: 110 Качают: 41 Добавлен: 2018-10-30 09:42:42
Горные огни / The Body Tree (2017) WEB-DL 1080p | iTunes

Название: Горные огни
Оригинальное название: The Body Tree
Год выхода: 2017
Жанр: ужасы, триллер
Режиссер: Томас Данн
В ролях: Эрика Дашер, Алексей Воробьев, Эмма Дюмон, Кайл Джонс, Иванна Сахно, Джин Фарбер, Коста Ронин, Сэм Хэмилл, Мэйсон Д. Дэвис, Марк Борковски, Майкл Карделль, Крис Петровски, Ана Флавия Гавлак, Роксанна Муньос, Константин Ронин

Описание: Группа студентов американского вуза приезжает в горную алтайскую деревушку навестить родственников своей бывшей одногруппницы Карины — девушки, родом из этих мест, убитой в Америке при загадочных обстоятельствах. Брат Карины оказывается местным шаманом. После радушного приёма он предлагает друзьям принять участие в ритуале примирения, чтобы символически выпустить дух Карины на небеса.

Но что-то идёт не так, и вместо доброго духа Карины друзья высвобождают злой дух — Курюм. Он начинает вселяться то в одного, то в другого героя, заставляя их безжалостно убивать друг друга. Причина этому могла быть только одна — убийца Карины присутствовал на церемонии. Чтобы выжить, друзья должны вычислить, кто из них виновен в смерти девушки.

Страна: Россия, Испания, США
Продолжительность: 01:33:54
Перевод: Профессиональный (дублированный) - iTunes
Субтитры: Английские (полные, SDH), шведские, финские, норвежские, датские, румынские, венгерские, индонезийские
Оригинальная аудиодорожка: Английский

Файл
Качество: WEB-DL 1080p
Видео: MPEG-4, 1920x814 (2,35:1), 4579 kbps, 25.000 fps, 0.117 bit/pixel
Аудио 1: Русский AC3, 48000 Гц, 6ch, 384 kbps
Аудио 2: Русский AAC, 48000 Гц, 2ch, 128 kbps
Аудио 3: Английский AC3, 48000 Гц, 2ch, 224 kbps

ЦитатаКто-то писал:Исходник видео и дубляжа - WEB-DL (1080p) iTunes RUS - выкуплен ylnian
Локализованный видеоряд - все надписи на русском языке
Исходник оригинальной дорожки - The.Body.Tree.2017.1080p.AMZN.WEB-DL.DDP2.0.H.264-NTG
Исходник скандинавских субтитров - The.Body.Tree.2017.NORDiC.1080p.WEB-DL.H.264-RAPiDCOW


[+] MediaInfo
Общее
Уникальный идентификатор                 : 305353175972293499322762327546799949331 (0xE5B8E1ECF42E30510054FCBCC8298613)
Полное имя                               : The.Body.Tree.2017.WEBDL.1080p.iTunes.RUS-ylnian.mkv
Формат                                   : Matroska
Версия формата                           : Version 4 / Version 2
Размер файла                             : 3,49 Гбайт
Продолжительность                        : 1 ч. 33 м.
Общий поток                              : 5319 Кбит/сек
Название фильма                          : The.Body.Tree.2017.WEBDL.1080p.iTunes.RUS-ylnian
Дата кодирования                         : UTC 2018-10-29 11:03:19
Программа кодирования                    : mkvmerge v28.2.0 ('The Awakening') 64-bit
Библиотека кодирования                   : libebml v1.3.6 + libmatroska v1.4.9

Видео
Идентификатор                            : 1
Формат                                   : AVC
Формат/Информация                        : Advanced Video Codec
Профиль формата                          : High@L4
Настройки формата                        : CABAC / 5 Ref Frames
Параметр CABAC формата                   : Да
Параметр RefFrames формата               : 5 кадров
Идентификатор кодека                     : V_MPEG4/ISO/AVC
Продолжительность                        : 1 ч. 33 м.
Битрейт                                  : 4579 Кбит/сек
Ширина                                   : 1920 пикселей
Высота                                   : 814 пикселей
Соотношение сторон                       : 2,35:1
Режим частоты кадров                     : Постоянный
Частота кадров                           : 25,000 кадров/сек
Цветовое пространство                    : YUV
Субдискретизация насыщенности            : 4:2:0
Битовая глубина                          : 8 бит
Тип развёртки                            : Прогрессивная
Бит/(Пиксели*Кадры)                      : 0.117
Размер потока                            : 3,00 Гбайт (86%)
Заголовок                                : The.Body.Tree.2017.WEBDL.1080p.iTunes.RUS-ylnian
Язык                                     : English
Default                                  : Да
Forced                                   : Да
Цветовой диапазон                        : Limited
Основные цвета                           : BT.709
Характеристики трансфера                 : BT.709
Коэффициенты матрицы                     : BT.709

Аудио #1
Идентификатор                            : 2
Формат                                   : AC-3
Формат/Информация                        : Audio Coding 3
Идентификатор кодека                     : A_AC3
Продолжительность                        : 1 ч. 33 м.
Вид битрейта                             : Постоянный
Битрейт                                  : 384 Кбит/сек
Каналы                                   : 6 каналов
Расположение каналов                     : Front: L C R, Side: L R, LFE
Частота                                  : 48,0 КГц
Частота кадров                           : 31,250 кадров/сек (1536 SPF)
Битовая глубина                          : 16 бит
Метод сжатия                             : С потерями
Размер потока                            : 258 Мбайт (7%)
Заголовок                                : DUB (AC3 5.1 384 kbps)
Язык                                     : Russian
ServiceKind                              : Complete Main
Default                                  : Да
Forced                                   : Да

Аудио #2
Идентификатор                            : 3
Формат                                   : AAC
Формат/Информация                        : Advanced Audio Codec
Профиль формата                          : LC
Идентификатор кодека                     : A_AAC-2
Продолжительность                        : 1 ч. 33 м.
Битрейт                                  : 128 Кбит/сек
Каналы                                   : 2 канала
Расположение каналов                     : Front: L R
Частота                                  : 48,0 КГц
Частота кадров                           : 46,875 кадров/сек (1024 SPF)
Метод сжатия                             : С потерями
Размер потока                            : 86,0 Мбайт (2%)
Заголовок                                : DUB (AAC 2.0 128 kbps)
Язык                                     : Russian
Default                                  : Нет
Forced                                   : Нет

Аудио #3
Идентификатор                            : 4
Формат                                   : AC-3
Формат/Информация                        : Audio Coding 3
Идентификатор кодека                     : A_AC3
Продолжительность                        : 1 ч. 33 м.
Вид битрейта                             : Постоянный
Битрейт                                  : 224 Кбит/сек
Каналы                                   : 2 канала
Расположение каналов                     : Front: L R
Частота                                  : 48,0 КГц
Частота кадров                           : 31,250 кадров/сек (1536 SPF)
Битовая глубина                          : 16 бит
Метод сжатия                             : С потерями
Размер потока                            : 150 Мбайт (4%)
Заголовок                                : AC3 2.0 224 kbps
Язык                                     : English
ServiceKind                              : Complete Main
Default                                  : Нет
Forced                                   : Нет

Текст #1
Идентификатор                            : 5
Формат                                   : UTF-8
Идентификатор кодека                     : S_TEXT/UTF8
Идентификатор кодека/Информация          : UTF-8 Plain Text
Продолжительность                        : 1 ч. 29 м.
Битрейт                                  : 42 бит/сек
ElementCount                             : 1069
Размер потока                            : 28,0 Кбайт (0%)
Заголовок                                : full
Язык                                     : English
Default                                  : Нет
Forced                                   : Нет

Текст #2
Идентификатор                            : 6
Формат                                   : UTF-8
Идентификатор кодека                     : S_TEXT/UTF8
Идентификатор кодека/Информация          : UTF-8 Plain Text
Продолжительность                        : 1 ч. 31 м.
Битрейт                                  : 51 бит/сек
ElementCount                             : 1463
Размер потока                            : 34,2 Кбайт (0%)
Заголовок                                : SDH
Язык                                     : English
Default                                  : Нет
Forced                                   : Нет

Текст #3
Идентификатор                            : 7
Формат                                   : UTF-8
Идентификатор кодека                     : S_TEXT/UTF8
Идентификатор кодека/Информация          : UTF-8 Plain Text
Продолжительность                        : 1 ч. 28 м.
Битрейт                                  : 39 бит/сек
ElementCount                             : 576
Размер потока                            : 25,3 Кбайт (0%)
Язык                                     : Swedish
Default                                  : Нет
Forced                                   : Нет

Текст #4
Идентификатор                            : 8
Формат                                   : UTF-8
Идентификатор кодека                     : S_TEXT/UTF8
Идентификатор кодека/Информация          : UTF-8 Plain Text
Продолжительность                        : 1 ч. 28 м.
Битрейт                                  : 36 бит/сек
ElementCount                             : 576
Размер потока                            : 23,9 Кбайт (0%)
Язык                                     : Norwegian
Default                                  : Нет
Forced                                   : Нет

Текст #5
Идентификатор                            : 9
Формат                                   : UTF-8
Идентификатор кодека                     : S_TEXT/UTF8
Идентификатор кодека/Информация          : UTF-8 Plain Text
Продолжительность                        : 1 ч. 28 м.
Битрейт                                  : 37 бит/сек
ElementCount                             : 576
Размер потока                            : 24,0 Кбайт (0%)
Язык                                     : Finnish
Default                                  : Нет
Forced                                   : Нет

Текст #6
Идентификатор                            : 10
Формат                                   : UTF-8
Идентификатор кодека                     : S_TEXT/UTF8
Идентификатор кодека/Информация          : UTF-8 Plain Text
Продолжительность                        : 1 ч. 28 м.
Битрейт                                  : 37 бит/сек
ElementCount                             : 576
Размер потока                            : 24,1 Кбайт (0%)
Язык                                     : Danish
Default                                  : Нет
Forced                                   : Нет

Текст #7
Идентификатор                            : 11
Формат                                   : UTF-8
Идентификатор кодека                     : S_TEXT/UTF8
Идентификатор кодека/Информация          : UTF-8 Plain Text
Продолжительность                        : 1 ч. 26 м.
Битрейт                                  : 48 бит/сек
ElementCount                             : 1137
Размер потока                            : 30,9 Кбайт (0%)
Язык                                     : Hungarian
Default                                  : Нет
Forced                                   : Нет

Текст #8
Идентификатор                            : 12
Формат                                   : UTF-8
Идентификатор кодека                     : S_TEXT/UTF8
Идентификатор кодека/Информация          : UTF-8 Plain Text
Продолжительность                        : 1 ч. 29 м.
Битрейт                                  : 46 бит/сек
ElementCount                             : 1164
Размер потока                            : 30,5 Кбайт (0%)
Язык                                     : Romanian
Default                                  : Нет
Forced                                   : Нет

Текст #9
Идентификатор                            : 13
Формат                                   : UTF-8
Идентификатор кодека                     : S_TEXT/UTF8
Идентификатор кодека/Информация          : UTF-8 Plain Text
Продолжительность                        : 1 ч. 28 м.
Битрейт                                  : 47 бит/сек
ElementCount                             : 951
Размер потока                            : 30,8 Кбайт (0%)
Язык                                     : Indonesian
Default                                  : Нет
Forced                                   : Нет

Меню
00:00:00.000                             : en:1
00:05:28.640                             : en:2
00:10:47.440                             : en:3
00:15:49.960                             : en:4
00:20:39.800                             : en:5
00:27:47.080                             : en:6
00:35:21.600                             : en:7
00:41:37.400                             : en:8
00:48:02.120                             : en:9
00:54:16.680                             : en:10
00:59:37.120                             : en:11
01:06:28.120                             : en:12
01:12:43.600                             : en:13
01:17:46.040                             : en:14
01:23:53.080                             : en:15



[+] Скрытый текст
если можно, сделайте. пожалуйста, раздачу на 1500 Мб?

очередной ужастик из серии "попали не туда".
ничего особенного.
но, хотя бы не художественная самодеятельность, как в последних ужасах...
как и в любом фильме ужасов, присутствует туповатось персонажей, но заложенная в основу фильма детективная линия, спасает положение и становится интересно, кто же все таки убийца?
могли бы и покрасивше снять!
там - такие суперски красивые места!
Ая - река и Озеро, гора Чёртов палец, реки, озера, горы, тайга, степь холмы, раскрашенные разноцветной глиной /прям "марсианские пейзажи"/, огромные луга эдельвейсов, восхитительные водопады...

ту brimazenok "так плохо снять это надо постараться"
поддержу!

ту RoberArtois
что то мне подсказывает, что Вы не были в Горно Алтайске?
а так = прикольные фантазии!
это у Вас из за таблеточек? или из за того, что лекарства не приняли?



Скриншоты:
[+] Всего файлов в раздаче - 1:
The.Body.Tree.2017.WEBDL.1080p.iTunes.RUS-ylnian.mkv3.49 GB

Текущая раздача:
ДатаКомментарии    РазмерПиры
2018-10-30 U Горные огни / The Body Tree (2017) WEB-DL 1080p | iTunes 3.49 GB ↑ 110 ↓ 41

Похожие раздачи по запросу - горные:
2014-07-13 U Горные акулы / Avalanche Sharks (2013) HDRip 1.45 GB ↑ 303 ↓ 8
2013-12-07 U Горные лыжи. Кубок мира 2013-14. Бивер Крик. Мужчины. Скоростной спуск / EUROSPORT [06.12.2013 RU, IPTVRip] 1.47 GB ↑ 21 ↓ 0

Отзывы
Зарегистрируйтесь чтобы добавить комментарий.
Обратная связь
Copyleft ©