↑↓Torrent.by
Поиск
Логин: Регистрация
Пароль: Восстановить пароль
Загрузка...

22 мили / Mile 22 (2018) WEB-DLRip-AVC от OlLanDGroup | iTunes

Скачать 22-mili-mile-2018-web-dlrip-avc-ot-ollandgroup-itunes.torrent
U Магнитная ссылка Размер: 1.50 GB Раздают: 194 Качают: 70 Добавлен: 2018-10-30 13:18:01
22 мили / Mile 22 (2018) WEB-DLRip-AVC от OlLanDGroup | iTunes

22 мили / Mile 22
«Призраки не играют по правилам»

Год выпуска: 2018
Страна: США
Производство: Closest to the Hole Productions
Жанр:  Боевик, триллер

Режиссёр: Пьер Греко, Нэнси Севард
В ролях: Сильви Моро, Гийом Леме-Тивьерж, Рашид Бадури, Александрина Уоррен, Стефан Крит, Эдгар Фруатье, Себастьен Бенуа, Бертран Ален, Саймон-Пьер Гарипи, Мартин Бойли

Перевод: Дублированный | [iTunes]
Субтитры: Нет
Реклама: Отсутствует

Описание: Призраки — элитный отряд сверхсекретной разведки: официально они не существуют, но на самом деле — реальны. Они решают задачи, когда старые методы уже не работают, и всегда добиваются поставленной цели. Суперагенту отряда при поддержке ЦРУ предстоит непростая миссия: тайно вывести из Индонезии полицейского, владеющего доказательствами коррупции в высших политических кругах. До спасительного самолета им предстоит преодолеть 22 смертельно опасные мили.

Качество: WEB-DLRip-AVC | iTunes Version |
Продолжительность: 01:34:25

Формат: MKV
Видео кодек: MPEG-4 AVC
Аудио кодек: AC3
Видео: 1024x426 (2.40:1), 23,976 fps, x264 ~1 897 kbps avg, 0.181 bit/pixel
Аудио #1: 48 kHz, AC3 Dolby Digital, 3/2 (L,C,R,l,r) + LFE ch, ~384.00 kbps avg | RUS (iTunes)

Дата премьеры (мир): 16 августа 2018
Дата премьеры (РФ): 23 августа 2018, «MEGOGO Distribution»
Цифровой релиз: 30 октября 2018, «Megogo Distribution»

Релиз: Rip by:


[+] MediaInfo

Общее
Уникальный идентификатор                 : 65656334170556158079800623049569754571 (0x3164F3335102ECCFEDC354D73F345DCB)
Полное имя                               : F:OlLanDGroupMile.22.2018.WEB-DLRip(AVC).OlLanDGroup.mkv
Формат                                   : Matroska
Версия формата                           : Version 4 / Version 2
Размер файла                             : 1,50 Гбайт
Продолжительность                        : 1 ч. 34 м.
Общий поток                              : 2281 Кбит/сек
Название фильма                          : Mile 22 2018   #TorpedoUK#
Дата кодирования                         : UTC 2018-10-30 06:21:31
Программа кодирования                    : mkvmerge v25.0.0 ('Prog Noir') 64-bit
Библиотека кодирования                   : libebml v1.3.6 + libmatroska v1.4.9

Видео
Идентификатор                            : 1
Формат                                   : AVC
Формат/Информация                        : Advanced Video Codec
Профиль формата                          : High@L4.1
Параметр CABAC формата                   : Да
Параметр ReFrames формата                : 10 кадров
Идентификатор кодека                     : V_MPEG4/ISO/AVC
Продолжительность                        : 1 ч. 34 м.
Битрейт                                  : 1897 Кбит/сек
Ширина                                   : 1024 пикселя
Высота                                   : 426 пикселей
Соотношение сторон                       : 2,40:1
Режим частоты кадров                     : Постоянный
Частота кадров                           : 23,976 (24000/1001) кадра/сек
Цветовое пространство                    : YUV
Субдискретизация насыщенности            : 4:2:0
Битовая глубина                          : 8 бит
Тип развёртки                            : Прогрессивная
Бит/(Пиксели*Кадры)                      : 0.181
Размер потока                            : 1,25 Гбайт (83%)
Библиотека кодирования                   : x264 core 146 r2538 121396c
Настройки программы                      : cabac=1 / ref=10 / deblock=1:-2:-3 / analyse=0x3:0x113 / me=umh / subme=11 / psy=1 / psy_rd=0.95:0.07 / mixed_ref=1 / me_range=48 / chroma_me=1 / trellis=2 / 8x8dct=1 / cqm=0 / deadzone=21,11 / fast_pskip=1 / chroma_qp_offset=-3 / threads=6 / lookahead_threads=1 / sliced_threads=0 / nr=0 / decimate=1 / interlaced=0 / bluray_compat=0 / constrained_intra=0 / bframes=10 / b_pyramid=2 / b_adapt=2 / b_bias=0 / direct=3 / weightb=1 / open_gop=0 / weightp=2 / keyint=240 / keyint_min=23 / scenecut=40 / intra_refresh=0 / rc_lookahead=40 / rc=2pass / mbtree=0 / bitrate=1897 / ratetol=1.0 / qcomp=0.60 / qpmin=0 / qpmax=69 / qpstep=4 / cplxblur=20.0 / qblur=0.5 / vbv_maxrate=50000 / vbv_bufsize=62500 / nal_hrd=none / filler=0 / ip_ratio=1.40 / pb_ratio=1.30 / aq=1:1.00
Язык                                     : English
Default                                  : Да
Forced                                   : Нет

Аудио
Идентификатор                            : 2
Формат                                   : AC-3
Формат/Информация                        : Audio Coding 3
Расширение режима                        : CM (complete main)
Параметр Endianness формата              : Big
Идентификатор кодека                     : A_AC3
Продолжительность                        : 1 ч. 34 м.
Вид битрейта                             : Постоянный
Битрейт                                  : 384 Кбит/сек
Каналы                                   : 6 каналов
Расположение каналов                     : Front: L C R, Side: L R, LFE
Частота                                  : 48,0 КГц
Частота кадров                           : 31,250 кадров/сек (1536 spf)
Битовая глубина                          : 16 бит
Метод сжатия                             : С потерями
Размер потока                            : 259 Мбайт (17%)
Заголовок                                : DUB [iTunes]
Язык                                     : Russian
Default                                  : Да
Forced                                   : Да

Меню
00:00:00.000                             : en:1
00:12:12.000                             : en:2
00:21:43.000                             : en:3
00:30:41.000                             : en:4
00:42:54.000                             : en:5
00:52:46.000                             : en:6
01:03:47.000                             : en:7
01:13:07.000                             : en:8
01:26:47.000                             : en:9



Скриншоты:
[+] Всего файлов в раздаче - 1:
Mile.22.2018.WEB-DLRip(AVC).OlLanDGroup.mkv1.50 GB

Текущая раздача:
ДатаКомментарии    РазмерПиры
2018-10-30 U 22 мили / Mile 22 (2018) WEB-DLRip-AVC от OlLanDGroup | iTunes 1.50 GB ↑ 194 ↓ 70

Похожие раздачи по запросу - мили:
2018-11-01 U 22 мили / Mile 22 (2018) WEB-DLRip от Scarabey | iTunes 1.45 GB ↑ 117 ↓ 40
2018-10-30 U 22 мили / Mile 22 (2018) WEB-DL 720p от селезень | iTunes 2.92 GB ↑ 507 ↓ 255
2018-10-30 U 22 мили / Mile 22 (2018) WEB-DLRip от MegaPeer | iTunes 1.46 GB ↑ 1787 ↓ 789
2018-10-30 U 22 мили / Mile 22 (2018) WEB-DL 1080p от TeamHD | iTunes 3.27 GB ↑ 1839 ↓ 870
2018-10-16 U 22 мили / Mile 22 (2018) TS-AVC | L2 1.01 GB ↑ 301 ↓ 55

Отзывы
Зарегистрируйтесь чтобы добавить комментарий.
Обратная связь
Copyleft ©