↑↓Torrent.by
Поиск
Логин: Регистрация
Пароль: Восстановить пароль
Загрузка...

Галвестон / Galveston (2018) WEB-DL 1080p от OlLanDGroup | HDRezka Studio

Скачать galveston-2018-web-dl-1080p-ot-ollandgroup-hdrezka-studio.torrent
U Магнитная ссылка Размер: 3.36 GB Раздают: 121 Качают: 77 Добавлен: 2018-10-30 13:18:10
Галвестон / Galveston (2018) WEB-DL 1080p от OlLanDGroup | HDRezka Studio

Галвестон / Galveston

Год выпуска: 2018
Страна: США
Производство: Jean Doumanian Productions, Low Spark Films
Жанр:  Боевик, триллер, драма, криминал

Режиссёр: Мелани Лоран
В ролях: Лили Рейнхарт, Элль Фэннинг, Бен Фостер, Мария Вальверде, Бо Бриджес, Роберт Арамайо, Эдеперо Одуйе, Тинсли Прайс, Эннистон Прайс, Хайди Левандовски

Перевод: Профессиональный (многоголосый, закадровый) | [HDRezka Studio]
Субтитры: Английские (полные)
Реклама: Отсутствует

Описание: Фильм рассказывает о киллере по имени Рой, у которого обнаруживают серьезные проблемы с легкими. Вскоре криминальный босс отправляет его на очередное задание, но оказывается, что Роя послали на верную смерть. Чудом оставшись в живых и застрелив своих потенциальных убийц, наш герой собирается бежать, но замечает юную Рокки, которую бандиты держали в плену. С неохотой он освобождает девушку и берет её с собой. Парочка отправляется в Галвестон, где Рой преисполнен решимости найти убежище, но Рокки вносит свои коррективы в планы своего спасителя.

Качество: WEB-DL 1080p | iTunes Version | Galveston.2018.1080p.WEB-DL.DD5.1.H264-FGT
Продолжительность: 01:33:21

Формат: MKV
Видео кодек: MPEG-4 AVC
Аудио кодек: AC3
Видео: 1920x800 (2.40:1), 23,976 fps, x264 ~4 581 kbps avg, 0.124 bit/pixel
Аудио #1: 48 kHz, AC3 Dolby Digital, 2 (L,R) ch, ~192.00 kbps avg | RUS (HDRezka Studio)
Аудио #2: 48 kHz, AC3 Dolby Digital, 3/2 (L,C,R,l,r) + LFE ch, ~384.00 kbps avg | ENG

Дата премьеры (мир): 10 марта 2018
Дата премьеры (РФ): 18 октября 2018, «Парадиз»

Релиз:


[+] MediaInfo

Общее
Уникальный идентификатор                 : 205230978412691932597862507859731973906 (0x9A660C768F7BB65139FB8ECB71028712)
Полное имя                               : F:OlLanDGroupGalveston.2018.WEB-DL(1080p).OlLanDGroup.mkv
Формат                                   : Matroska
Версия формата                           : Version 4 / Version 2
Размер файла                             : 3,36 Гбайт
Продолжительность                        : 1 ч. 33 м.
Общий поток                              : 5159 Кбит/сек
Название фильма                          : Galveston.2018   #TorpedoUK#
Дата кодирования                         : UTC 2018-10-30 07:12:48
Программа кодирования                    : mkvmerge v25.0.0 ('Prog Noir') 64-bit
Библиотека кодирования                   : libebml v1.3.6 + libmatroska v1.4.9
Обложка                                  : Yes
Attachments                              : cover_land.jpg / small_cover.jpg / small_cover_land.jpg / cover.jpg

Видео
Идентификатор                            : 1
Формат                                   : AVC
Формат/Информация                        : Advanced Video Codec
Профиль формата                          : High@L4
Параметр CABAC формата                   : Да
Параметр ReFrames формата                : 5 кадров
Идентификатор кодека                     : V_MPEG4/ISO/AVC
Продолжительность                        : 1 ч. 33 м.
Битрейт                                  : 4581 Кбит/сек
Ширина                                   : 1920 пикселей
Высота                                   : 800 пикселей
Соотношение сторон                       : 2,40:1
Режим частоты кадров                     : Постоянный
Частота кадров                           : 23,976 (23976/1000) кадра/сек
Цветовое пространство                    : YUV
Субдискретизация насыщенности            : 4:2:0
Битовая глубина                          : 8 бит
Тип развёртки                            : Прогрессивная
Бит/(Пиксели*Кадры)                      : 0.124
Размер потока                            : 2,99 Гбайт (89%)
Заголовок                                : Galveston.2018.1080p.WEB-DL.DD5.1.H264-FGT
Язык                                     : English
Default                                  : Да
Forced                                   : Нет
Цветовой диапазон                        : Limited
Основные цвета                           : BT.709
Характеристики трансфера                 : BT.709
Коэффициенты матрицы                     : BT.709

Аудио #1
Идентификатор                            : 2
Формат                                   : AC-3
Формат/Информация                        : Audio Coding 3
Расширение режима                        : CM (complete main)
Параметр Endianness формата              : Big
Идентификатор кодека                     : A_AC3
Продолжительность                        : 1 ч. 33 м.
Вид битрейта                             : Постоянный
Битрейт                                  : 192 Кбит/сек
Каналы                                   : 2 канала
Расположение каналов                     : Front: L R
Частота                                  : 48,0 КГц
Частота кадров                           : 31,250 кадров/сек (1536 spf)
Битовая глубина                          : 16 бит
Метод сжатия                             : С потерями
Задержка видео                           : -42 мс.
Размер потока                            : 128 Мбайт (4%)
Заголовок                                : MVO [HDRezka Studio]
Язык                                     : Russian
Default                                  : Да
Forced                                   : Нет

Аудио #2
Идентификатор                            : 3
Формат                                   : AC-3
Формат/Информация                        : Audio Coding 3
Расширение режима                        : CM (complete main)
Параметр Endianness формата              : Big
Идентификатор кодека                     : A_AC3
Продолжительность                        : 1 ч. 33 м.
Вид битрейта                             : Постоянный
Битрейт                                  : 384 Кбит/сек
Каналы                                   : 6 каналов
Расположение каналов                     : Front: L C R, Side: L R, LFE
Частота                                  : 48,0 КГц
Частота кадров                           : 31,250 кадров/сек (1536 spf)
Битовая глубина                          : 16 бит
Метод сжатия                             : С потерями
Задержка видео                           : -42 мс.
Размер потока                            : 256 Мбайт (7%)
Заголовок                                : [Original]
Язык                                     : English
Default                                  : Нет
Forced                                   : Нет

Текст
Идентификатор                            : 4
Формат                                   : UTF-8
Идентификатор кодека                     : S_TEXT/UTF8
Идентификатор кодека/Информация          : UTF-8 Plain Text
Продолжительность                        : 1 ч. 30 м.
Битрейт                                  : 39 бит/сек
Count of elements                        : 835
Размер потока                            : 25,9 Кбайт (0%)
Заголовок                                : Full
Язык                                     : English
Default                                  : Нет
Forced                                   : Нет

Меню
00:00:00.000                             : en:1
00:10:31.172                             : en:2
00:20:36.485                             : en:3
00:27:37.572                             : en:4
00:40:06.529                             : en:5
00:50:32.404                             : en:6
01:02:35.919                             : en:7
01:08:36.988                             : en:8
01:19:32.601                             : en:9
01:27:28.868                             : en:10



Скриншоты:
[+] Всего файлов в раздаче - 1:
Galveston.2018.WEB-DL(1080p).OlLanDGroup.mkv3.36 GB

Текущая раздача:
ДатаКомментарии    РазмерПиры
2018-10-30 U Галвестон / Galveston (2018) WEB-DL 1080p от OlLanDGroup | HDRezka Studio 3.36 GB ↑ 121 ↓ 77

Похожие раздачи по запросу - галвестон:
2018-11-06 U Галвестон / Galveston (2018) WEB-DLRip от MegaPeer | iTunes 1.45 GB ↑ 383 ↓ 181
2018-11-06 U Галвестон / Galveston (2018) WEB-DL 1080p | iTunes 2К3.49 GB ↑ 481 ↓ 127
2018-10-28 U Галвестон / Galveston (2018) WEBRip 720p | L2 2.03 GB ↑ 405 ↓ 58
2018-10-27 U Галвестон / Galveston (2018) WEBRip | L2 1.21 GB ↑ 163 ↓ 72

Отзывы
Зарегистрируйтесь чтобы добавить комментарий.
Обратная связь
Copyleft ©