↑↓Torrent.by
Поиск
Логин: Регистрация
Пароль: Восстановить пароль
Загрузка...

Мег: Монстр глубины / The Meg (2018) WEB-DL 1080p от TeamHD | iTunes

Скачать meg-monstr-glubiny-the-2018-web-dl-1080p-ot-teamhd-itunes.torrent
U Магнитная ссылка Размер: 4.29 GB Раздают: 1720 Качают: 1062 Добавлен: 2018-10-31 09:01:12
Мег: Монстр глубины / The Meg (2018) WEB-DL 1080p от TeamHD | iTunes

Название: Мег: Монстр глубины
Оригинальное название: The Meg
Год выхода: 2018
Жанр: Ужасы, фантастика, боевик, триллер
Режиссер: Джон Тёртлтауб
В ролях: Джейсон Стэйтем, Бинбин Ли, Рэйн Уилсон, Клифф Кёртис, Уинстон Чао, Шуя Софиа Цай, Руби Роуз, Пейдж Кеннеди, Роберт Тейлор (II), Оулавюр Дарри Оулафссон, Джессика МакНэми, Маси Ока, Хунмэй Мэй, Витхая Пансрингарм, Роб Уильямс, Таванда Маниймо

О фильме: Глубоководный батискаф, осуществляющий наблюдение в рамках международной программы по изучению подводной жизни, был атакован огромным существом, которое все считали давно вымершим. Неисправный аппарат теперь лежит на дне глубочайшей впадины Тихого океана… с оказавшимся в ловушке экипажем. Их время на исходе. Китайский океанограф-новатор, несмотря на протесты его дочери Суинь, зовет спасателя-подводника Джонаса Тейлора, чтобы тот помог спасти команду и океан от невиданной угрозы — доисторической 23-метровой акулы, мегалодона. Никто и подумать не мог, что много лет назад Тейлор уже сталкивался с этим чудовищным созданием.

Страна: Китай, США
Студия: Apelles Entertainment, Di Bonaventura Pictures, Flagship Entertainment Group
Продолжительность: 01:53:11
Перевод: Дублированный | iTunes

Качество: WEB-DL 1080p
Видео: MPEG-4 AVC, 1920x798, 4534 Кbit/s, 23.976 fps
Звук:
Аудио #01: 48 kHz, AC3, 5.1, 384 Kbps | iTunes | RUS |
Аудио #02: 48 kHz, AAC, 2.0, 125 Kbps | iTunes | UKR |
Аудио #03: 48 kHz, AC3, 5.1, 384 Kbps | Оригинал |  ENG |
Субтитры: Русские (Forced, full), украинские (Forced), английские

Релиз: Автор релиза:


[+] MI
General
Unique ID                   : 220441802575321016833980897722960976990 (0xA5D78BFED993A1DFFA6D10D441781C5E)
Complete name               : D:Video111The.Meg.2018.1080p.WEB-DL.TeamHD.mkv
Format                      : Matroska
Format version              : Version 4
File size                   : 4.29 GiB
Duration                    : 1 h 53 min
Overall bit rate            : 5 431 kb/s
Movie name                  : The Meg 2018 TeamHD-селезень
Encoded date                : UTC 2018-10-30 18:24:05
Writing application         : mkvmerge v28.0.0 ('Voice In My Head') 64-bit
Writing library             : libebml v1.3.6 + libmatroska v1.4.9

Video
ID                          : 1
Format                      : AVC
Format/Info                 : Advanced Video Codec
Format profile              : High@L4
Format settings             : CABAC / 5 Ref Frames
Format settings, CABAC      : Yes
Format settings, ReFrames   : 5 frames
Codec ID                    : V_MPEG4/ISO/AVC
Duration                    : 1 h 53 min
Bit rate                    : 4 534 kb/s
Width                       : 1 920 pixels
Height                      : 798 pixels
Display aspect ratio        : 2.40:1
Frame rate mode             : Constant
Frame rate                  : 23.976 (24000/1001) FPS
Color space                 : YUV
Chroma subsampling          : 4:2:0
Bit depth                   : 8 bits
Scan type                   : Progressive
Bits/(Pixel*Frame)          : 0.123
Stream size                 : 3.58 GiB (83%)
Language                    : English
Default                     : Yes
Forced                      : No
Color range                 : Limited
Color primaries             : BT.709
Transfer characteristics    : BT.709
Matrix coefficients         : BT.709

Audio #1
ID                          : 2
Format                      : AC-3
Format/Info                 : Audio Coding 3
Commercial name             : Dolby Digital
Codec ID                    : A_AC3
Duration                    : 1 h 53 min
Bit rate mode               : Constant
Bit rate                    : 384 kb/s
Channel(s)                  : 6 channels
Channel layout              : L R C LFE Ls Rs
Sampling rate               : 48.0 kHz
Frame rate                  : 31.250 FPS (1536 SPF)
Bit depth                   : 16 bits
Compression mode            : Lossy
Stream size                 : 311 MiB (7%)
Title                       : iTunes
Language                    : Russian
Service kind                : Complete Main
Default                     : Yes
Forced                      : Yes

Audio #2
ID                          : 3
Format                      : AAC LC
Format/Info                 : Advanced Audio Codec Low Complexity
Codec ID                    : A_AAC-2
Duration                    : 1 h 53 min
Bit rate                    : 125 kb/s
Channel(s)                  : 2 channels
Channel layout              : L R
Sampling rate               : 44.1 kHz
Frame rate                  : 43.066 FPS (1024 SPF)
Compression mode            : Lossy
Stream size                 : 102 MiB (2%)
Title                       : iTunes
Language                    : Ukrainian
Default                     : No
Forced                      : No

Audio #3
ID                          : 4
Format                      : AC-3
Format/Info                 : Audio Coding 3
Commercial name             : Dolby Digital
Codec ID                    : A_AC3
Duration                    : 1 h 53 min
Bit rate mode               : Constant
Bit rate                    : 384 kb/s
Channel(s)                  : 6 channels
Channel layout              : L R C LFE Ls Rs
Sampling rate               : 48.0 kHz
Frame rate                  : 31.250 FPS (1536 SPF)
Bit depth                   : 16 bits
Compression mode            : Lossy
Stream size                 : 311 MiB (7%)
Title                       : Original
Language                    : English
Service kind                : Complete Main
Default                     : No
Forced                      : No

Text #1
ID                          : 5
Format                      : UTF-8
Codec ID                    : S_TEXT/UTF8
Codec ID/Info               : UTF-8 Plain Text
Duration                    : 1 h 41 min
Bit rate                    : 5 b/s
Count of elements           : 97
Stream size                 : 3.81 KiB (0%)
Title                       : Forced
Language                    : Russian
Default                     : Yes
Forced                      : Yes

Text #2
ID                          : 6
Format                      : UTF-8
Codec ID                    : S_TEXT/UTF8
Codec ID/Info               : UTF-8 Plain Text
Duration                    : 1 h 52 min
Bit rate                    : 78 b/s
Count of elements           : 1203
Stream size                 : 64.6 KiB (0%)
Title                       : Full
Language                    : Russian
Default                     : No
Forced                      : No

Text #3
ID                          : 7
Format                      : UTF-8
Codec ID                    : S_TEXT/UTF8
Codec ID/Info               : UTF-8 Plain Text
Duration                    : 1 h 52 min
Bit rate                    : 5 b/s
Count of elements           : 111
Stream size                 : 4.20 KiB (0%)
Title                       : Forced
Language                    : Ukrainian
Default                     : No
Forced                      : No

Text #4
ID                          : 8
Format                      : UTF-8
Codec ID                    : S_TEXT/UTF8
Codec ID/Info               : UTF-8 Plain Text
Duration                    : 1 h 41 min
Bit rate                    : 51 b/s
Count of elements           : 1409
Stream size                 : 38.1 KiB (0%)
Title                       : SDH
Language                    : English
Default                     : No
Forced                      : No

Menu
00:00:00.000                : en:1
00:08:48.000                : en:2
00:18:14.000                : en:3
00:27:10.000                : en:4
00:39:31.000                : en:5
00:49:11.000                : en:6
00:58:01.000                : en:7
01:08:23.000                : en:8
01:19:46.000                : en:9
01:30:04.000                : en:10
01:42:43.000                : en:11



Скриншоты:
[+] Всего файлов в раздаче - 1:
The.Meg.2018.1080p.WEB-DL.TeamHD.mkv4.29 GB

Текущая раздача:
ДатаКомментарии    РазмерПиры
2018-10-31 U Мег: Монстр глубины / The Meg (2018) WEB-DL 1080p от TeamHD | iTunes 4.29 GB ↑ 1720 ↓ 1062

Показать еще раздачи по запросу монстр:
2018-11-12 U Мег: Монстр глубины / The Meg (2018) HDRip от Scarabey | Лицензия 1.45 GB ↑ 73 ↓ 18
2018-11-12 U Мег: Монстр глубины / The Meg (2018) BDRip 1080p от qqss44 & MegaPeer | Лицензия 7.60 GB ↑ 133 ↓ 55
2018-11-11 U Мег: Монстр глубины / The Meg (2018) BDRip-AVC от HELLYWOOD | Лицензия 2.91 GB ↑ 96 ↓ 56
2018-11-11 U Мег: Монстр глубины / The Meg (2018) BDRip 1080p от селезень | Лицензия 11.95 GB ↑ 101 ↓ 81
2018-11-11 U Мег: Монстр глубины / The Meg (2018) BDRip 720p от селезень | Лицензия 5.63 GB ↑ 121 ↓ 77
2018-11-11 U Мег: Монстр глубины / The Meg (2018) BDRip от MegaPeer | Лицензия 1.46 GB ↑ 24 ↓ 54
2018-11-08 U Мег: Монстр глубины / The Meg (2018) BDRip от ExKinoRay | iTunes 2.14 GB ↑ 105 ↓ 42

Отзывы
Зарегистрируйтесь чтобы добавить комментарий.
Обратная связь
Copyleft ©