↑↓Torrent.by
Поиск
Логин: Регистрация
Пароль: Восстановить пароль
Загрузка...

Великий уравнитель 2 / The Equalizer 2 (2018) WEB-DL 720p от селезень | iTunes

Скачать velikiy-uravnitel-2-the-equalizer-2018-web-dl-720p-ot-selezen-itunes.torrent
U Магнитная ссылка Размер: 4.06 GB Раздают: 557 Качают: 359 Добавлен: 2018-10-31 09:01:26
Великий уравнитель 2 / The Equalizer 2 (2018) WEB-DL 720p от селезень | iTunes

Название: Великий уравнитель 2
Оригинальное название: The Equalizer 2
Год выхода: 2018
Жанр: Боевик, триллер, криминал
Режиссер: Антуан Фукуа
В ролях: Педро Паскаль, Дензел Вашингтон, Билл Пуллман, Мелисса Лео, Джонатан Скарф, Сакина Джэффри, Кэролайн Дэй, Орсон Бин, Хайди Гарроу, Эштон Сандерс

О фильме: Продолжение истории Роберта Маккола, бывшего агента ЦРУ, который самостоятельно вершит правосудие.

Страна: США
Студия: Columbia Pictures, Escape Artists, Fuqua Films
Продолжительность: 02:01:12
Перевод: Дублированный | iTunes

Качество: WEB-DL 720p
Видео: MPEG-4 AVC, 1280x530, 4021 Кbit/s, 23.976 fps
Звук:
Аудио #01: 48 kHz, AC3, 5.1, 384 Kbps | iTunes | RUS |
Аудио #02: 48 kHz, AC3, 5.1, 384 Kbps | Оригинал |  ENG |
Субтитры: Русские (Forced, full), украинские (Full), английские

Автор релиза:


[+] MI
General
Unique ID                   : 309820010292223862278931842140926543673 (0xE91529DC653312BAB532C6CF39028739)
Complete name               : D:Video111The.Equalizer.2.2018.720p.WEB-DL.selezen.mkv
Format                      : Matroska
Format version              : Version 4
File size                   : 4.06 GiB
Duration                    : 2 h 1 min
Overall bit rate            : 4 790 kb/s
Movie name                  : The Equalizer 2 2018 селезень
Encoded date                : UTC 2018-10-30 18:38:01
Writing application         : mkvmerge v28.0.0 ('Voice In My Head') 64-bit
Writing library             : libebml v1.3.6 + libmatroska v1.4.9

Video
ID                          : 1
Format                      : AVC
Format/Info                 : Advanced Video Codec
Format profile              : Main@L3.1
Format settings             : 2 Ref Frames
Format settings, CABAC      : No
Format settings, ReFrames   : 2 frames
Codec ID                    : V_MPEG4/ISO/AVC
Duration                    : 2 h 1 min
Bit rate                    : 4 021 kb/s
Width                       : 1 280 pixels
Height                      : 530 pixels
Display aspect ratio        : 2.40:1
Frame rate mode             : Constant
Frame rate                  : 23.976 FPS
Color space                 : YUV
Chroma subsampling          : 4:2:0
Bit depth                   : 8 bits
Scan type                   : Progressive
Bits/(Pixel*Frame)          : 0.247
Stream size                 : 3.40 GiB (84%)
Language                    : English
Default                     : Yes
Forced                      : No
Color range                 : Limited
Color primaries             : BT.709
Transfer characteristics    : BT.709
Matrix coefficients         : BT.709

Audio #1
ID                          : 2
Format                      : AC-3
Format/Info                 : Audio Coding 3
Commercial name             : Dolby Digital
Codec ID                    : A_AC3
Duration                    : 2 h 0 min
Bit rate mode               : Constant
Bit rate                    : 384 kb/s
Channel(s)                  : 6 channels
Channel layout              : L R C LFE Ls Rs
Sampling rate               : 48.0 kHz
Frame rate                  : 31.250 FPS (1536 SPF)
Bit depth                   : 16 bits
Compression mode            : Lossy
Stream size                 : 332 MiB (8%)
Title                       : iTunes
Language                    : Russian
Service kind                : Complete Main
Default                     : Yes
Forced                      : Yes

Audio #2
ID                          : 3
Format                      : AC-3
Format/Info                 : Audio Coding 3
Commercial name             : Dolby Digital
Codec ID                    : A_AC3
Duration                    : 2 h 0 min
Bit rate mode               : Constant
Bit rate                    : 384 kb/s
Channel(s)                  : 6 channels
Channel layout              : L R C LFE Ls Rs
Sampling rate               : 48.0 kHz
Frame rate                  : 31.250 FPS (1536 SPF)
Bit depth                   : 16 bits
Compression mode            : Lossy
Stream size                 : 332 MiB (8%)
Title                       : Original
Language                    : English
Service kind                : Complete Main
Default                     : No
Forced                      : No

Text #1
ID                          : 4
Format                      : UTF-8
Codec ID                    : S_TEXT/UTF8
Codec ID/Info               : UTF-8 Plain Text
Duration                    : 1 h 59 min
Bit rate                    : 1 b/s
Count of elements           : 43
Stream size                 : 1.60 KiB (0%)
Title                       : Forced
Language                    : Russian
Default                     : Yes
Forced                      : Yes

Text #2
ID                          : 5
Format                      : UTF-8
Codec ID                    : S_TEXT/UTF8
Codec ID/Info               : UTF-8 Plain Text
Duration                    : 1 h 59 min
Bit rate                    : 57 b/s
Count of elements           : 1062
Stream size                 : 50.3 KiB (0%)
Title                       : Full
Language                    : Russian
Default                     : No
Forced                      : No

Text #3
ID                          : 6
Format                      : UTF-8
Codec ID                    : S_TEXT/UTF8
Codec ID/Info               : UTF-8 Plain Text
Duration                    : 1 h 59 min
Bit rate                    : 55 b/s
Count of elements           : 1058
Stream size                 : 48.7 KiB (0%)
Title                       : Full
Language                    : Ukrainian
Default                     : No
Forced                      : No

Text #4
ID                          : 7
Format                      : UTF-8
Codec ID                    : S_TEXT/UTF8
Codec ID/Info               : UTF-8 Plain Text
Duration                    : 1 h 52 min
Bit rate                    : 40 b/s
Count of elements           : 1283
Stream size                 : 33.6 KiB (0%)
Language                    : English
Default                     : No
Forced                      : No

Menu
00:00:00.000                : en:1
00:06:49.034                : en:2
00:13:21.634                : en:3
00:16:42.459                : en:4
00:27:09.919                : en:5
00:34:04.458                : en:6
00:41:04.543                : en:7
00:47:07.613                : en:8
00:54:16.333                : en:9
01:02:16.813                : en:10
01:11:17.727                : en:11
01:18:38.125                : en:12
01:25:18.942                : en:13
01:31:39.238                : en:14
01:40:09.330                : en:15
01:52:13.720                : en:16



Скриншоты:
[+] Всего файлов в раздаче - 1:
The.Equalizer.2.2018.720p.WEB-DL.selezen.mkv4.06 GB

Текущая раздача:
ДатаКомментарии    РазмерПиры
2018-10-31 U Великий уравнитель 2 / The Equalizer 2 (2018) WEB-DL 720p от селезень | iTunes 4.06 GB ↑ 557 ↓ 359

Показать еще раздачи по запросу великий:
Вчера U Великий уравнитель 2 / The Equalizer 2 (2018) HDRip от Scarabey | iTunes 1.40 GB ↑ 84 ↓ 30
2018-11-14 U Великий уравнитель 2 / The Equalizer 2 (2018) BDRip от ExKinoRay | iTunes 1.46 GB ↑ 70 ↓ 27
2018-11-14 U Великий уравнитель 2 / The Equalizer 2 (2018) BDRip 1080p от qqss44 & MegaPeer | iTunes 7.53 GB ↑ 180 ↓ 75
2018-11-13 U Великий уравнитель 2 / The Equalizer 2 (2018) BDRip 720p от HELLYWOOD | iTunes 4.83 GB ↑ 142 ↓ 85
2018-11-13 U Великий уравнитель 2 / The Equalizer 2 (2018) BDRip-AVC от ExKinoRay | iTunes 2.38 GB ↑ 164 ↓ 48
2018-11-13 U Великий уравнитель 2 / The Equalizer 2 (2018) BDRip от MegaPeer | iTunes 2.13 GB ↑ 74 ↓ 20
2018-11-13 U Великий уравнитель 2 / The Equalizer 2 (2018) BDRip 720p от селезень | iTunes 4.98 GB ↑ 94 ↓ 33

Отзывы
Зарегистрируйтесь чтобы добавить комментарий.
Обратная связь
Copyleft ©