↑↓Torrent.by
Поиск
Логин: Регистрация
Пароль: Восстановить пароль
Загрузка...

Планета зверей / Dong wu shi jie (2018) WEB-DLRip | HDrezka Studio

Скачать planeta-zverey-dong-wu-shi-jie-2018-web-dlrip-hdrezka-studio.torrent
U Магнитная ссылка Размер: 1.37 GB Раздают: 509 Качают: 102 Добавлен: 2018-10-31 09:01:30
Планета зверей / Dong wu shi jie (2018) WEB-DLRip | HDrezka Studio

Планета зверей / Animal World / Dong wu shi jie

Страна: Китай
Производство: Beijing Ruyi Xinxin Film Investment, Enlight Pictures, Er Dong Pictures, Gravity Pictures, Jixiang Entertainment
Год выпуска: 2018
Жанр:  драма, приключения, триллер
Продолжительность: 02:10:19

Режиссер: Хань Янь
Авторы сценария: Хань Янь, Нобуюки Фукумото

В ролях: Ли Ифэн, Чжоу Дунъюй, Майкл Дуглас, Цао Бинкунь, Эрик Хейз, Альберто Ланселлотти, Ли Ицзюань, Кит Шиллито, Ван Гэ

Описание: Актёр-неудачник Чжэн Кайси, работающий клоуном, сталкивается со сложной жизненной ситуацией: его мать уже несколько лет лежит в коме, а самого парня подставляет лучший друг. Теперь Кайси потерял отцовскую квартиру и остался должен невероятную сумму. Но судьба дает ему шанс. Оказывается, существует загадочный корабль, на котором любому желающему предлагают сыграть в камень-ножницы-бумага, и где можно встретить людей со всего света. На кону — списание всех денежных долгов. Кайси решает принять участие в игре...

Перевод: Профессиональный (многоголосый, закадровый) | HDrezka Studio
Субтитры: нет

Качество: WEB-DLRip
Формат: AVI
Видео кодек: XviD
Аудио кодек: АС3
Видео: 720x272 (2.647), 24.000 fps, XviD ~1 304 kbps avg
Аудио: 48.0 kHz, AC3 Dolby Digital, 2/0 (L,R) ch, ~192 kbps

Дата премьеры (мир): 28 июня 2018
Дата премьеры (РФ): 2 августа 2018, «MEGOGO Distribution»


[+] Media Info
General
Complete name                  : Dong wu shi jie (2018) WEB-DLRip  HDrezka Studio.avi
Format                         : AVI
Format/Info                    : Audio Video Interleave
File size                      : 1.37 GiB
Duration                       : 2 h 10 min
Overall bit rate               : 1 505 kb/s
Writing application            : VirtualDubMod 1.5.10.3 | (build 2550/release)
Writing library                : VirtualDubMod build 2550/release

Video
ID                             : 0
Format                         : MPEG-4 Visual
Format profile                 : Advanced Simple@L5
Format settings, BVOP          : 2
Format settings, QPel          : No
Format settings, GMC           : No warppoints
Format settings, Matrix        : Custom
Codec ID                       : XVID
Codec ID/Hint                  : XviD
Duration                       : 2 h 10 min
Bit rate                       : 1 304 kb/s
Width                          : 720 pixels
Height                         : 272 pixels
Display aspect ratio           : 2.647
Frame rate                     : 24.000 FPS
Color space                    : YUV
Chroma subsampling             : 4:2:0
Bit depth                      : 8 bits
Scan type                      : Progressive
Compression mode               : Lossy
Bits/(Pixel*Frame)             : 0.277
Stream size                    : 1.19 GiB (87%)
Writing library                : XviD 1.2.1 (UTC 2008-12-04)

Audio
ID                             : 1
Format                         : AC-3
Format/Info                    : Audio Coding 3
Format settings, Endianness    : Big
Codec ID                       : 2000
Duration                       : 2 h 10 min
Bit rate mode                  : Constant
Bit rate                       : 192 kb/s
Channel(s)                     : 2 channels
Channel positions              : Front: L R
Sampling rate                  : 48.0 kHz
Frame rate                     : 31.250 FPS (1536 SPF)
Bit depth                      : 16 bits
Compression mode               : Lossy
Stream size                    : 179 MiB (13%)
Alignment                      : Split accross interleaves
Interleave, duration           : 42  ms (1.00 video frame)
Interleave, preload duration   : 500  ms
Service kind                   : Complete Main



Скриншоты:
[+] Всего файлов в раздаче - 1:
Dong wu shi jie (2018) WEB-DLRip HDrezka Studio.avi1.37 GB

Текущая раздача:
ДатаКомментарии    РазмерПиры
2018-10-31 U Планета зверей / Dong wu shi jie (2018) WEB-DLRip | HDrezka Studio 1.37 GB ↑ 509 ↓ 102

Показать еще раздачи по запросу планета:
2018-10-31 U Планета зверей / Dong wu shi jie (2018) WEB-DL 1080p | HDrezka Studio 3.59 GB ↑ 403 ↓ 116
2018-06-05 U Гарри Гаррисон - Неукротимая планета (2018) MP3 170.49 MB ↑ 219 ↓ 14
2018-04-21 U Планета Ка-Пэкс / K-Pax (2001) D-TheaterRip 720р 7.77 GB ↑ 33 ↓ 16
2018-03-22 U Эта веселая планета (1973) DVDRip-AVC от KORSAR 2.78 GB ↑ 90 ↓ 30
2018-01-24 U Годзилла: Планета чудовищ / Godzilla: Monster Planet (2017) WEBRip 720p | L1 1.80 GB ↑ 132 ↓ 14
2018-01-21 U Годзилла: Планета чудовищ / Godzilla: Monster Planet (2017) WEBRip | L1 1.37 GB ↑ 204 ↓ 75
2018-01-21 U Годзилла: Планета чудовищ / Godzilla: Monster Planet (2017) WEBRip 1080p | L1 2.94 GB ↑ 731 ↓ 206

Отзывы
Зарегистрируйтесь чтобы добавить комментарий.
Обратная связь
Copyleft ©