↑↓Torrent.by
Поиск
Логин: Регистрация
Пароль: Восстановить пароль
Загрузка...

Планета зверей / Dong wu shi jie (2018) WEB-DL 1080p | HDrezka Studio

Скачать planeta-zverey-dong-wu-shi-jie-2018-web-dl-1080p-hdrezka-studio.torrent
U Магнитная ссылка Размер: 3.59 GB Раздают: 403 Качают: 116 Добавлен: 2018-10-31 09:01:36
Планета зверей / Dong wu shi jie (2018) WEB-DL 1080p | HDrezka Studio

Название: Планета зверей
Оригинальное название: Dong wu shi jie
Год выпуска: 2018
Жанр:  драма, приключения, триллер
Режиссер: Хань Янь
Авторы сценария: Хань Янь, Нобуюки Фукумото

В ролях: Ли Ифэн, Чжоу Дунъюй, Майкл Дуглас, Цао Бинкунь, Эрик Хейз, Альберто Ланселлотти, Ли Ицзюань, Кит Шиллито, Ван Гэ

Описание:
Актёр-неудачник Чжэн Кайси, работающий клоуном, сталкивается со сложной жизненной ситуацией: его мать уже несколько лет лежит в коме, а самого парня подставляет лучший друг. Теперь Кайси потерял отцовскую квартиру и остался должен невероятную сумму. Но судьба дает ему шанс. Оказывается, существует загадочный корабль, на котором любому желающему предлагают сыграть в камень-ножницы-бумага, и где можно встретить людей со всего света, даже русских. На кону — списание всех денежных долгов. Кайси решает принять участие в игре...

Страна: Китай
Производство: Beijing Ruyi Xinxin Film Investment, Enlight Pictures, Er Dong Pictures, Gravity Pictures, Jixiang Entertainment
Продолжительность: 02:10:19
Перевод: Профессиональный (многоголосый, закадровый) | HDrezka Studio
Субтитры: Английские (Full)

Файл
Качество: WEB-DL 1080p
Формат: MKV
Видео: AVC/H.264, 1920x720, ~3028 Кбит
Аудио #1: AC3, 2 ch, 192 kbps - Русский
Аудио #2: AC3, 6 ch, 640 kbps - Китайский


[+] M/I
General
Unique ID                   : 235545328269766152626284434404410137980 (0xB134614E124D2706B5EF0B847C4C1D7C)
Complete name               : Планета зверей 2018 WEB-DL 1080p-LQ.mkv
Format                      : Matroska
Format version              : Version 2
File size                   : 3.59 GiB
Duration                    : 2 h 10 min
Overall bit rate            : 3 939 kb/s
Encoded date                : UTC 2018-10-30 09:44:18
Writing application         : mkvmerge v7.8.0 ('River Man') 32bit built on Apr  3 2015 12:11:22
Writing library             : libebml v1.3.1 + libmatroska v1.4.2

Video
ID                          : 1
Format                      : AVC
Format/Info                 : Advanced Video Codec
Format profile              : Main@L4
Format settings             : CABAC / 2 Ref Frames
Format settings, CABAC      : Yes
Format settings, ReFrames   : 2 frames
Codec ID                    : V_MPEG4/ISO/AVC
Duration                    : 2 h 10 min
Bit rate                    : 3 028 kb/s
Width                       : 1 920 pixels
Height                      : 720 pixels
Display aspect ratio        : 2.667
Frame rate mode             : Constant
Frame rate                  : 24.000 FPS
Color space                 : YUV
Chroma subsampling          : 4:2:0
Bit depth                   : 8 bits
Scan type                   : Progressive
Bits/(Pixel*Frame)          : 0.091
Stream size                 : 2.76 GiB (77%)
Language                    : Russian
Default                     : Yes
Forced                      : Yes

Audio #1
ID                          : 2
Format                      : AC-3
Format/Info                 : Audio Coding 3
Commercial name             : Dolby Digital
Codec ID                    : A_AC3
Duration                    : 2 h 10 min
Bit rate mode               : Constant
Bit rate                    : 192 kb/s
Channel(s)                  : 2 channels
Channel layout              : L R
Sampling rate               : 48.0 kHz
Frame rate                  : 31.250 FPS (1536 SPF)
Bit depth                   : 16 bits
Compression mode            : Lossy
Stream size                 : 179 MiB (5%)
Language                    : Russian
Service kind                : Complete Main
Default                     : Yes
Forced                      : Yes

Audio #2
ID                          : 3
Format                      : E-AC-3
Format/Info                 : Enhanced AC-3
Commercial name             : Dolby Digital Plus
Codec ID                    : A_EAC3
Duration                    : 2 h 10 min
Bit rate mode               : Constant
Bit rate                    : 640 kb/s
Channel(s)                  : 6 channels
Channel layout              : L R C LFE Ls Rs
Sampling rate               : 48.0 kHz
Frame rate                  : 31.250 FPS (1536 SPF)
Compression mode            : Lossy
Stream size                 : 597 MiB (16%)
Language                    : Chinese
Service kind                : Complete Main
Default                     : No
Forced                      : No

Text
ID                          : 4
Format                      : UTF-8
Codec ID                    : S_TEXT/UTF8
Codec ID/Info               : UTF-8 Plain Text
Duration                    : 2 h 2 min
Bit rate                    : 39 b/s
Count of elements           : 1339
Stream size                 : 35.8 KiB (0%)
Title                       : English [Full]
Language                    : English



Скриншоты:
[+] Всего файлов в раздаче - 1:
Animal World 2018 WEB-DL 1080p-LQ.mkv3.59 GB

Текущая раздача:
ДатаКомментарии    РазмерПиры
2018-10-31 U Планета зверей / Dong wu shi jie (2018) WEB-DL 1080p | HDrezka Studio 3.59 GB ↑ 403 ↓ 116

Показать еще раздачи по запросу планета:
2018-10-31 U Планета зверей / Dong wu shi jie (2018) WEB-DLRip | HDrezka Studio 1.37 GB ↑ 505 ↓ 102
2018-06-05 U Гарри Гаррисон - Неукротимая планета (2018) MP3 170.49 MB ↑ 219 ↓ 14
2018-04-21 U Планета Ка-Пэкс / K-Pax (2001) D-TheaterRip 720р 7.77 GB ↑ 33 ↓ 16
2018-03-22 U Эта веселая планета (1973) DVDRip-AVC от KORSAR 2.78 GB ↑ 90 ↓ 30
2018-01-24 U Годзилла: Планета чудовищ / Godzilla: Monster Planet (2017) WEBRip 720p | L1 1.80 GB ↑ 132 ↓ 14
2018-01-21 U Годзилла: Планета чудовищ / Godzilla: Monster Planet (2017) WEBRip | L1 1.37 GB ↑ 204 ↓ 75
2018-01-21 U Годзилла: Планета чудовищ / Godzilla: Monster Planet (2017) WEBRip 1080p | L1 2.94 GB ↑ 729 ↓ 206

Отзывы
Зарегистрируйтесь чтобы добавить комментарий.
Обратная связь
Copyleft ©