↑↓Torrent.by
Поиск
Логин: Регистрация
Пароль: Восстановить пароль
Загрузка...

Мег: Монстр глубины / The Meg (2018) WEB-DLRip-AVC от OlLanDGroup | iTunes

Скачать meg-monstr-glubiny-the-2018-web-dlrip-avc-ot-ollandgroup-itunes.torrent
U Магнитная ссылка Размер: 2.28 GB Раздают: 289 Качают: 121 Добавлен: 2018-10-31 15:02:29
Мег: Монстр глубины / The Meg (2018) WEB-DLRip-AVC от OlLanDGroup | iTunes

Мег: Монстр глубины / The Meg
«Кушать подано!»

Год выпуска: 2018
Страна: Китай, США
Производство: Apelles Entertainment, Di Bonaventura Pictures, Flagship Entertainment Group
Жанр:  Ужасы, фантастика, боевик, триллер

Режиссёр: Джон Тёртлтауб
В ролях: Джейсон Стэйтем, Бинбин Ли, Рэйн Уилсон, Клифф Кёртис, Уинстон Чао, Шуя Софиа Цай, Руби Роуз, Пейдж Кеннеди, Роберт Тейлор (II), Оулавюр Дарри Оулафссон, Джессика МакНэми, Маси Ока, Хунмэй Мэй, Витхая Пансрингарм, Роб Уильямс, Таванда Маниймо

Перевод: Дублированный | [iTunes]
Субтитры: Русские (форс., полные), Украинские (форс.), Английские (полные, SDH)
Реклама: Отсутствует

Описание: Глубоководный батискаф, осуществляющий наблюдение в рамках международной программы по изучению подводной жизни, был атакован огромным существом, которое все считали давно вымершим. Неисправный аппарат теперь лежит на дне глубочайшей впадины Тихого океана... с оказавшимся в ловушке экипажем. Их время на исходе. Китайская океанограф-новатор Суинь вопреки желанию своей дочери зовет спасателя-подводника Джонаса Тейлора, чтобы тот помог спасти команду и океан от невиданной угрозы - доисторической 23-метровой акулы, мегалодона. Никто и подумать не мог, что много лет назад Тейлор уже сталкивался с этим чудовищным созданием.

Качество: WEB-DLRip-AVC | iTunes Version |
Продолжительность: 01:53:11

Формат: MKV
Видео кодек: MPEG-4 AVC
Аудио кодек: AC3
Видео: 1024x426 (2.40:1), 23,976 fps, x264 ~1 957 kbps avg, 0.187 bit/pixel
Аудио #1: 48 kHz, AC3 Dolby Digital, 3/2 (L,C,R,l,r) + LFE ch, ~384.00 kbps avg | RUS (iTunes)
Аудио #1: 48 kHz, AC3 Dolby Digital, 2 (L,R) ch, ~160.00 kbps avg | UKR (iTunes)
Аудио #1: 48 kHz, AC3 Dolby Digital, 3/2 (L,C,R,l,r) + LFE ch, ~384.00 kbps avg | ENG

Дата премьеры (мир): 8 августа 2018
Дата премьеры (РФ): 9 августа 2018, «Каро-Премьер»
Цифровой релиз: 17 октября 2018, «Warner Bros.»

Релиз: Rip by:


[+] MediaInfo

Общее
Уникальный идентификатор                 : 21797784791617733374108308897020770062 (0x106619C3E1656D6A4A2F81231227F70E)
Полное имя                               : F:OlLanDGroupThe.Meg.2018.WEB-DLRip(AVC).OlLanDGroup.mkv
Формат                                   : Matroska
Версия формата                           : Version 4 / Version 2
Размер файла                             : 2,28 Гбайт
Продолжительность                        : 1 ч. 53 м.
Общий поток                              : 2886 Кбит/сек
Название фильма                          : The Meg 2018   #TorpedoUK#
Дата кодирования                         : UTC 2018-10-31 01:09:45
Программа кодирования                    : mkvmerge v25.0.0 ('Prog Noir') 64-bit
Библиотека кодирования                   : libebml v1.3.6 + libmatroska v1.4.9

Видео
Идентификатор                            : 1
Формат                                   : AVC
Формат/Информация                        : Advanced Video Codec
Профиль формата                          : High@L4.1
Параметр CABAC формата                   : Да
Параметр ReFrames формата                : 10 кадров
Идентификатор кодека                     : V_MPEG4/ISO/AVC
Продолжительность                        : 1 ч. 53 м.
Битрейт                                  : 1957 Кбит/сек
Ширина                                   : 1024 пикселя
Высота                                   : 426 пикселей
Соотношение сторон                       : 2,40:1
Режим частоты кадров                     : Постоянный
Частота кадров                           : 23,976 (24000/1001) кадра/сек
Цветовое пространство                    : YUV
Субдискретизация насыщенности            : 4:2:0
Битовая глубина                          : 8 бит
Тип развёртки                            : Прогрессивная
Бит/(Пиксели*Кадры)                      : 0.187
Размер потока                            : 1,55 Гбайт (68%)
Библиотека кодирования                   : x264 core 146 r2538 121396c
Настройки программы                      : cabac=1 / ref=10 / deblock=1:-3:-3 / analyse=0x3:0x113 / me=umh / subme=10 / psy=1 / psy_rd=0.97:0.05 / mixed_ref=1 / me_range=48 / chroma_me=1 / trellis=2 / 8x8dct=1 / cqm=0 / deadzone=21,11 / fast_pskip=1 / chroma_qp_offset=-3 / threads=6 / lookahead_threads=1 / sliced_threads=0 / nr=0 / decimate=1 / interlaced=0 / bluray_compat=0 / constrained_intra=0 / bframes=10 / b_pyramid=2 / b_adapt=2 / b_bias=0 / direct=3 / weightb=1 / open_gop=0 / weightp=2 / keyint=240 / keyint_min=23 / scenecut=40 / intra_refresh=0 / rc_lookahead=40 / rc=2pass / mbtree=0 / bitrate=1957 / ratetol=1.0 / qcomp=0.60 / qpmin=0 / qpmax=69 / qpstep=4 / cplxblur=20.0 / qblur=0.5 / vbv_maxrate=50000 / vbv_bufsize=62500 / nal_hrd=none / filler=0 / ip_ratio=1.40 / pb_ratio=1.30 / aq=1:1.00
Язык                                     : English
Default                                  : Да
Forced                                   : Нет

Аудио #1
Идентификатор                            : 2
Формат                                   : AC-3
Формат/Информация                        : Audio Coding 3
Расширение режима                        : CM (complete main)
Параметр Endianness формата              : Big
Идентификатор кодека                     : A_AC3
Продолжительность                        : 1 ч. 53 м.
Вид битрейта                             : Постоянный
Битрейт                                  : 384 Кбит/сек
Каналы                                   : 6 каналов
Расположение каналов                     : Front: L C R, Side: L R, LFE
Частота                                  : 48,0 КГц
Частота кадров                           : 31,250 кадров/сек (1536 spf)
Битовая глубина                          : 16 бит
Метод сжатия                             : С потерями
Размер потока                            : 311 Мбайт (13%)
Заголовок                                : DUB [iTunes]
Язык                                     : Russian
Default                                  : Да
Forced                                   : Нет

Аудио #2
Идентификатор                            : 3
Формат                                   : AC-3
Формат/Информация                        : Audio Coding 3
Расширение режима                        : CM (complete main)
Параметр Endianness формата              : Big
Идентификатор кодека                     : A_AC3
Продолжительность                        : 1 ч. 53 м.
Вид битрейта                             : Постоянный
Битрейт                                  : 160 Кбит/сек
Каналы                                   : 2 канала
Расположение каналов                     : Front: L R
Частота                                  : 48,0 КГц
Частота кадров                           : 31,250 кадров/сек (1536 spf)
Битовая глубина                          : 16 бит
Метод сжатия                             : С потерями
Размер потока                            : 130 Мбайт (6%)
Заголовок                                : DUB [iTunes]
Язык                                     : Ukrainian
Default                                  : Нет
Forced                                   : Нет

Аудио #3
Идентификатор                            : 4
Формат                                   : AC-3
Формат/Информация                        : Audio Coding 3
Расширение режима                        : CM (complete main)
Параметр Endianness формата              : Big
Идентификатор кодека                     : A_AC3
Продолжительность                        : 1 ч. 53 м.
Вид битрейта                             : Постоянный
Битрейт                                  : 384 Кбит/сек
Каналы                                   : 6 каналов
Расположение каналов                     : Front: L C R, Side: L R, LFE
Частота                                  : 48,0 КГц
Частота кадров                           : 31,250 кадров/сек (1536 spf)
Битовая глубина                          : 16 бит
Метод сжатия                             : С потерями
Размер потока                            : 311 Мбайт (13%)
Заголовок                                : [Original]
Язык                                     : English
Default                                  : Нет
Forced                                   : Нет

Текст #1
Идентификатор                            : 5
Формат                                   : UTF-8
Идентификатор кодека                     : S_TEXT/UTF8
Идентификатор кодека/Информация          : UTF-8 Plain Text
Продолжительность                        : 1 ч. 41 м.
Битрейт                                  : 5 бит/сек
Count of elements                        : 97
Размер потока                            : 3,81 Кбайт (0%)
Заголовок                                : Forced
Язык                                     : Russian
Default                                  : Да
Forced                                   : Нет

Текст #2
Идентификатор                            : 6
Формат                                   : UTF-8
Идентификатор кодека                     : S_TEXT/UTF8
Идентификатор кодека/Информация          : UTF-8 Plain Text
Продолжительность                        : 1 ч. 52 м.
Битрейт                                  : 78 бит/сек
Count of elements                        : 1203
Размер потока                            : 64,6 Кбайт (0%)
Заголовок                                : Full
Язык                                     : Russian
Default                                  : Нет
Forced                                   : Нет

Текст #3
Идентификатор                            : 7
Формат                                   : UTF-8
Идентификатор кодека                     : S_TEXT/UTF8
Идентификатор кодека/Информация          : UTF-8 Plain Text
Продолжительность                        : 1 ч. 52 м.
Битрейт                                  : 5 бит/сек
Count of elements                        : 111
Размер потока                            : 4,20 Кбайт (0%)
Заголовок                                : Forced
Язык                                     : Ukrainian
Default                                  : Нет
Forced                                   : Нет

Текст #4
Идентификатор                            : 8
Формат                                   : UTF-8
Идентификатор кодека                     : S_TEXT/UTF8
Идентификатор кодека/Информация          : UTF-8 Plain Text
Продолжительность                        : 1 ч. 42 м.
Битрейт                                  : 51 бит/сек
Count of elements                        : 1411
Размер потока                            : 38,2 Кбайт (0%)
Заголовок                                : Full
Язык                                     : English
Default                                  : Нет
Forced                                   : Нет

Текст #5
Идентификатор                            : 9
Формат                                   : UTF-8
Идентификатор кодека                     : S_TEXT/UTF8
Идентификатор кодека/Информация          : UTF-8 Plain Text
Продолжительность                        : 1 ч. 41 м.
Битрейт                                  : 51 бит/сек
Count of elements                        : 1409
Размер потока                            : 38,1 Кбайт (0%)
Заголовок                                : SDH
Язык                                     : English
Default                                  : Нет
Forced                                   : Нет

Меню
00:00:00.000                             : en:1
00:08:48.000                             : en:2
00:18:14.000                             : en:3
00:27:10.000                             : en:4
00:39:31.000                             : en:5
00:49:11.000                             : en:6
00:58:01.000                             : en:7
01:08:23.000                             : en:8
01:19:46.000                             : en:9
01:30:04.000                             : en:10
01:42:43.000                             : en:11



Скриншоты:
[+] Всего файлов в раздаче - 1:
The.Meg.2018.WEB-DLRip(AVC).OlLanDGroup.mkv2.28 GB

Текущая раздача:
ДатаКомментарии    РазмерПиры
2018-10-31 U Мег: Монстр глубины / The Meg (2018) WEB-DLRip-AVC от OlLanDGroup | iTunes 2.28 GB ↑ 289 ↓ 121

Показать еще раздачи по запросу монстр:
2018-11-12 U Мег: Монстр глубины / The Meg (2018) HDRip от Scarabey | Лицензия 1.45 GB ↑ 73 ↓ 18
2018-11-12 U Мег: Монстр глубины / The Meg (2018) BDRip 1080p от qqss44 & MegaPeer | Лицензия 7.60 GB ↑ 133 ↓ 55
2018-11-11 U Мег: Монстр глубины / The Meg (2018) BDRip-AVC от HELLYWOOD | Лицензия 2.91 GB ↑ 96 ↓ 56
2018-11-11 U Мег: Монстр глубины / The Meg (2018) BDRip 1080p от селезень | Лицензия 11.95 GB ↑ 101 ↓ 81
2018-11-11 U Мег: Монстр глубины / The Meg (2018) BDRip 720p от селезень | Лицензия 5.63 GB ↑ 121 ↓ 77
2018-11-11 U Мег: Монстр глубины / The Meg (2018) BDRip от MegaPeer | Лицензия 1.46 GB ↑ 24 ↓ 54
2018-11-08 U Мег: Монстр глубины / The Meg (2018) BDRip от ExKinoRay | iTunes 2.14 GB ↑ 106 ↓ 42

Отзывы
Зарегистрируйтесь чтобы добавить комментарий.
Обратная связь
Copyleft ©