↑↓Torrent.by
Поиск
Логин: Регистрация
Пароль: Восстановить пароль
Загрузка...

Великий уравнитель 2 / The Equalizer 2 (2018) WEB-DLRip-AVC от OlLanDGroup | iTunes

Скачать velikiy-uravnitel-2-the-equalizer-2018-web-dlrip-avc-ot-ollandgroup-itunes.torrent
U Магнитная ссылка Размер: 1.46 GB Раздают: 293 Качают: 79 Добавлен: 2018-10-31 15:02:32
Великий уравнитель 2 / The Equalizer 2 (2018) WEB-DLRip-AVC от OlLanDGroup | iTunes

Великий уравнитель 2 / The Equalizer 2
«There is no equal»

Год выпуска: 2018
Страна: США
Производство: Columbia Pictures, Escape Artists, Fuqua Films
Жанр:  Боевик, триллер, криминал

Режиссёр: Антуан Фукуа
В ролях: Педро Паскаль, Дензел Вашингтон, Билл Пуллман, Мелисса Лео, Джонатан Скарф, Сакина Джэффри, Кэролайн Дэй, Орсон Бин, Хайди Гарроу, Эштон Сандерс

Перевод: Дублированный | [iTunes]
Субтитры: Русские (форс., полные), Украинские (полные), Английские (полные)
Реклама: Отсутствует

Описание: Роберт даёт самому себе обещание, что он больше не будет влипать в истории и оружие в руки он больше не возьмёт. Но ему приходится нарушить своё слово, когда он знакомитсся с девушкой, которая работает проституткой. Герой проникается к ней симпатией и ему снова придётся взяться за оружие. На этот раз он связывается с русской мафией и агентами ФБР, которые ведут на мафию охоту.

Качество: WEB-DLRip-AVC | iTunes Version |
Продолжительность: 02:01:12

Формат: MKV
Видео кодек: MPEG-4 AVC
Аудио кодек: AC3
Видео: 720x298 (2.40:1), 23,976 fps, x264 ~1 339 kbps avg, 0.260 bit/pixel
Аудио #1: 48 kHz, AC3 Dolby Digital, 3/2 (L,C,R,l,r) + LFE ch, ~384.00 kbps avg | RUS (iTunes)

Дата премьеры (мир): 19 июля 2018
Дата премьеры (РФ): 6 сентября 2018, «WDSSPR»
Цифровой релиз: 31 октября 2018, «Sony Pictures Home Entertainment»

Релиз: Rip by:


[+] MediaInfo

Общее
Уникальный идентификатор                 : 46248932827928456726257101684478585768 (0x22CB38704221B0F9F6E3241A09182BA8)
Полное имя                               : F:OlLanDGroupThe.Equalizer.2.2018.WEB-DLRip(AVC).OlLanDGroup.mkv
Формат                                   : Matroska
Версия формата                           : Version 4 / Version 2
Размер файла                             : 1,46 Гбайт
Продолжительность                        : 2 ч. 1 м.
Общий поток                              : 1724 Кбит/сек
Название фильма                          : The Equalizer 2 2018   #TorpedoUK#
Дата кодирования                         : UTC 2018-10-31 02:31:23
Программа кодирования                    : mkvmerge v25.0.0 ('Prog Noir') 64-bit
Библиотека кодирования                   : libebml v1.3.6 + libmatroska v1.4.9

Видео
Идентификатор                            : 1
Формат                                   : AVC
Формат/Информация                        : Advanced Video Codec
Профиль формата                          : High@L4.1
Параметр CABAC формата                   : Да
Параметр ReFrames формата                : 10 кадров
Идентификатор кодека                     : V_MPEG4/ISO/AVC
Продолжительность                        : 2 ч. 1 м.
Битрейт                                  : 1339 Кбит/сек
Ширина                                   : 720 пикселей
Высота                                   : 298 пикселей
Соотношение сторон                       : 2,40:1
Режим частоты кадров                     : Постоянный
Частота кадров                           : 23,976 (24000/1001) кадра/сек
Цветовое пространство                    : YUV
Субдискретизация насыщенности            : 4:2:0
Битовая глубина                          : 8 бит
Тип развёртки                            : Прогрессивная
Бит/(Пиксели*Кадры)                      : 0.260
Размер потока                            : 1,13 Гбайт (78%)
Библиотека кодирования                   : x264 core 146 r2538 121396c
Настройки программы                      : cabac=1 / ref=10 / deblock=1:-2:-3 / analyse=0x3:0x113 / me=umh / subme=10 / psy=1 / psy_rd=0.95:0.07 / mixed_ref=1 / me_range=48 / chroma_me=1 / trellis=2 / 8x8dct=1 / cqm=0 / deadzone=21,11 / fast_pskip=1 / chroma_qp_offset=-3 / threads=6 / lookahead_threads=1 / sliced_threads=0 / nr=0 / decimate=1 / interlaced=0 / bluray_compat=0 / constrained_intra=0 / bframes=10 / b_pyramid=2 / b_adapt=2 / b_bias=0 / direct=3 / weightb=1 / open_gop=0 / weightp=2 / keyint=240 / keyint_min=23 / scenecut=40 / intra_refresh=0 / rc_lookahead=40 / rc=2pass / mbtree=0 / bitrate=1339 / ratetol=1.0 / qcomp=0.60 / qpmin=0 / qpmax=69 / qpstep=4 / cplxblur=20.0 / qblur=0.5 / vbv_maxrate=50000 / vbv_bufsize=62500 / nal_hrd=none / filler=0 / ip_ratio=1.40 / pb_ratio=1.30 / aq=1:1.00
Default                                  : Да
Forced                                   : Нет

Аудио
Идентификатор                            : 2
Формат                                   : AC-3
Формат/Информация                        : Audio Coding 3
Расширение режима                        : CM (complete main)
Параметр Endianness формата              : Big
Идентификатор кодека                     : A_AC3
Продолжительность                        : 2 ч. 0 м.
Вид битрейта                             : Постоянный
Битрейт                                  : 384 Кбит/сек
Каналы                                   : 6 каналов
Расположение каналов                     : Front: L C R, Side: L R, LFE
Частота                                  : 48,0 КГц
Частота кадров                           : 31,250 кадров/сек (1536 spf)
Битовая глубина                          : 16 бит
Метод сжатия                             : С потерями
Размер потока                            : 332 Мбайт (22%)
Заголовок                                : DUB [iTunes]iTunes
Язык                                     : Russian
Default                                  : Да
Forced                                   : Нет

Текст #1
Идентификатор                            : 3
Формат                                   : UTF-8
Идентификатор кодека                     : S_TEXT/UTF8
Идентификатор кодека/Информация          : UTF-8 Plain Text
Продолжительность                        : 1 ч. 59 м.
Битрейт                                  : 1 бит/сек
Count of elements                        : 43
Размер потока                            : 1,60 Кбайт (0%)
Заголовок                                : Forced
Язык                                     : Russian
Default                                  : Да
Forced                                   : Нет

Текст #2
Идентификатор                            : 4
Формат                                   : UTF-8
Идентификатор кодека                     : S_TEXT/UTF8
Идентификатор кодека/Информация          : UTF-8 Plain Text
Продолжительность                        : 1 ч. 59 м.
Битрейт                                  : 57 бит/сек
Count of elements                        : 1062
Размер потока                            : 50,3 Кбайт (0%)
Заголовок                                : Full
Язык                                     : Russian
Default                                  : Нет
Forced                                   : Нет

Текст #3
Идентификатор                            : 5
Формат                                   : UTF-8
Идентификатор кодека                     : S_TEXT/UTF8
Идентификатор кодека/Информация          : UTF-8 Plain Text
Продолжительность                        : 1 ч. 59 м.
Битрейт                                  : 55 бит/сек
Count of elements                        : 1058
Размер потока                            : 48,7 Кбайт (0%)
Заголовок                                : Full
Язык                                     : Ukrainian
Default                                  : Нет
Forced                                   : Нет

Текст #4
Идентификатор                            : 6
Формат                                   : UTF-8
Идентификатор кодека                     : S_TEXT/UTF8
Идентификатор кодека/Информация          : UTF-8 Plain Text
Продолжительность                        : 1 ч. 52 м.
Битрейт                                  : 40 бит/сек
Count of elements                        : 1283
Размер потока                            : 33,6 Кбайт (0%)
Заголовок                                : Full
Язык                                     : English
Default                                  : Нет
Forced                                   : Нет

Меню
00:00:00.000                             : en:1
00:06:49.034                             : en:2
00:13:21.634                             : en:3
00:16:42.459                             : en:4
00:27:09.919                             : en:5
00:34:04.458                             : en:6
00:41:04.543                             : en:7
00:47:07.613                             : en:8
00:54:16.333                             : en:9
01:02:16.813                             : en:10
01:11:17.727                             : en:11
01:18:38.125                             : en:12
01:25:18.942                             : en:13
01:31:39.238                             : en:14
01:40:09.330                             : en:15
01:52:13.720                             : en:16



Скриншоты:
[+] Всего файлов в раздаче - 1:
The.Equalizer.2.2018.WEB-DLRip(AVC).OlLanDGroup.mkv1.46 GB

Текущая раздача:
ДатаКомментарии    РазмерПиры
2018-10-31 U Великий уравнитель 2 / The Equalizer 2 (2018) WEB-DLRip-AVC от OlLanDGroup | iTunes 1.46 GB ↑ 293 ↓ 79

Показать еще раздачи по запросу великий:
Сегодня U Великий уравнитель 2 / The Equalizer 2 (2018) BDRip 720p от HELLYWOOD | iTunes 4.83 GB ↑ 142 ↓ 82
Сегодня U Великий уравнитель 2 / The Equalizer 2 (2018) BDRip-AVC от ExKinoRay | iTunes 2.38 GB ↑ 164 ↓ 47
Сегодня U Великий уравнитель 2 / The Equalizer 2 (2018) BDRip от MegaPeer | iTunes 2.13 GB ↑ 72 ↓ 19
Сегодня U Великий уравнитель 2 / The Equalizer 2 (2018) BDRip 720p от селезень | iTunes 4.98 GB ↑ 93 ↓ 32
Сегодня U Великий уравнитель 2 / The Equalizer 2 (2018) BDRip 1080p от селезень | iTunes 10.05 GB ↑ 305 ↓ 98
Вчера U Великий уравнитель 2 / The Equalizer 2 (2018) BDRemux 1080p от селезень | iTunes 21.85 GB ↑ 111 ↓ 147
Вчера U Великий уравнитель 2 / The Equalizer 2 (2018) BDRip от MegaPeer | iTunes 1.46 GB ↑ 4047 ↓ 118

Отзывы
Зарегистрируйтесь чтобы добавить комментарий.
Обратная связь
Copyleft ©