↑↓Torrent.by
Поиск
Логин: Регистрация
Пароль: Восстановить пароль
Загрузка...

Царь Скорпионов: Книга Душ / The Scorpion King: Book of Souls (2018) WEBRip 720p | L2

Скачать car-skorpionov-kniga-dush-the-scorpion-king-book-of-souls-2018-webrip-720p-l2.torrent
U Магнитная ссылка Размер: 2.28 GB Раздают: 194 Качают: 81 Добавлен: 2018-10-31 15:03:05
Царь Скорпионов: Книга Душ / The Scorpion King: Book of Souls (2018) WEBRip 720p | L2

Название: Царь Скорпионов: Книга Душ
Оригинальное название: The Scorpion King: Book of Souls
Год выхода: 2018
Жанр: Фэнтези, боевик, приключения
Режиссер: Дон Майкл Пол
В ролях: Зэк МакГоун, Нэйтан Джонс, Питер Менса, Кэти Луиз Саундерс, Перл Туси, Ховард Чарльз, Нг Мэйлин, Инге Бекманн, Ризель Янук, Стефани Шилдкнект
О фильме:
Царь Скорпионов объединяется с женщином-воином Талой, сестрой Короля Нубии. Вместе они ищут легендарную Книгу Душ. Эта книга поможет им положить конец господству Лорда Войны.

Страна: США
Продолжительность: 01:42:21
Перевод: Любительский (двухголосый закадровый) | HiWay Grope

Файл
Кодек: MPEG-4 AVC/x.264
Качество: WEBRip 720p
Видео: 1280x720, 23.976 fps, ~2994 kbps, 0.135 bit/pixel
Звук:
Аудио rus: AC3, 48 kHz, 2 ch, 192 Kbps
Субтитры: отсутствуют

Реклама: присутствует

Семпл

Релиз от: HiWay Grope


[+] MediaInfo:

General
Unique ID                                : 213414917708513793462542799087779648523 (0xA08E37D2BD426ED9BE4D8640309B140B)
Complete name                            : D:The.Scorpion.King.Book.of.Souls.2018.720p.WEBRip.HiWayGropeThe.Scorpion.King.Book.of.Souls.2018.720p.WEBRip.HiWayGrope.mkv
Format                                   : Matroska
Format version                           : Version 4 / Version 2
File size                                : 2.28 GiB
Duration                                 : 1 h 42 min
Overall bit rate mode                    : Variable
Overall bit rate                         : 3 188 kb/s
Encoded date                             : UTC 2018-10-30 22:17:12
Writing application                      : mkvmerge v17.0.0 ('Be Ur Friend') 64-bit
Writing library                          : libebml v1.3.5 + libmatroska v1.4.8

Video
ID                                       : 1
Format                                   : AVC
Format/Info                              : Advanced Video Codec
Format profile                           : High@L5
Format settings                          : CABAC / 4 Ref Frames
Format settings, CABAC                   : Yes
Format settings, RefFrames               : 4 frames
Codec ID                                 : V_MPEG4/ISO/AVC
Duration                                 : 1 h 42 min
Bit rate mode                            : Variable
Bit rate                                 : 2 994 kb/s
Maximum bit rate                         : 12.0 Mb/s
Width                                    : 1 280 pixels
Height                                   : 720 pixels
Display aspect ratio                     : 16:9
Frame rate mode                          : Constant
Frame rate                               : 23.976 (24000/1001) FPS
Standard                                 : NTSC
Color space                              : YUV
Chroma subsampling                       : 4:2:0
Bit depth                                : 8 bits
Scan type                                : Progressive
Bits/(Pixel*Frame)                       : 0.135
Stream size                              : 2.14 GiB (94%)
Language                                 : English
Default                                  : Yes
Forced                                   : No
Color range                              : Limited
Color primaries                          : BT.709
Transfer characteristics                 : BT.709
Matrix coefficients                      : BT.709

Audio
ID                                       : 2
Format                                   : AC-3
Format/Info                              : Audio Coding 3
Codec ID                                 : A_AC3
Duration                                 : 1 h 42 min
Bit rate mode                            : Constant
Bit rate                                 : 192 kb/s
Channel(s)                               : 2 channels
Channel positions                        : Front: L R
Sampling rate                            : 48.0 kHz
Frame rate                               : 31.250 FPS (1536 SPF)
Bit depth                                : 16 bits
Compression mode                         : Lossy
Stream size                              : 141 MiB (6%)
Service kind                             : Complete Main
Default                                  : Yes
Forced                                   : No




Скриншоты:
[+] Всего файлов в раздаче - 1:
The.Scorpion.King.Book.of.Souls.2018.720p.WEBRip.HiWayGrope.mkv2.28 GB

Текущая раздача:
ДатаКомментарии    РазмерПиры
2018-10-31 U Царь Скорпионов: Книга Душ / The Scorpion King: Book of Souls (2018) WEBRip 720p | L2 2.28 GB ↑ 194 ↓ 81

Показать еще раздачи по запросу царь:
2018-10-31 U Царь Скорпионов: Книга Душ / The Scorpion King: Book of Souls (2018) WEBRip | L2 1.43 GB ↑ 253 ↓ 116
2018-07-02 U Андрей Белянин - Сотник и басурманский царь (2018) MP3 282.90 MB ↑ 75 ↓ 20
2018-06-25 U Царь обезьян: Новые легенды / The New Legends of Monkey [S01] (2018) WEBRip 1080p | BaibaKo 1К10.65 GB ↑ 51 ↓ 24
2018-05-29 U Царь обезьян: Царство женщин / Xi you ji nu er guo (2018) BDRip 1080p от Ash61 | 3D-Video | halfOU | L 14.53 GB ↑ 288 ↓ 39
2017-10-14 U Царь обезьян / У Кун / Wu Kong (2017) WEBDLRip-AVC от Batafurai Team и SOUND-GROUP | L2 2.05 GB ↑ 111 ↓ 41
2017-09-06 U Сказ про то, как царь Петр арапа женил (1976) HDTVRip-AVC 2.14 GB ↑ 41 ↓ 17
2017-02-05 U Три богатыря и Морской царь (2016) WEB-DLRip | iPad | iTunes 1.20 GB ↑ 1211 ↓ 116

Отзывы
Зарегистрируйтесь чтобы добавить комментарий.
Обратная связь
Copyleft ©