↑↓Torrent.by
Поиск
Логин: Регистрация
Пароль: Восстановить пароль
Загрузка...

Царь Скорпионов: Книга Душ / The Scorpion King: Book of Souls (2018) WEBRip | L2

Скачать car-skorpionov-kniga-dush-the-scorpion-king-book-of-souls-2018-webrip-l2.torrent
U Магнитная ссылка Размер: 1.43 GB Раздают: 253 Качают: 115 Добавлен: 2018-10-31 15:03:08
Царь Скорпионов: Книга Душ / The Scorpion King: Book of Souls (2018) WEBRip | L2

Название: Царь Скорпионов: Книга Душ
Оригинальное название: The Scorpion King: Book of Souls
Год выхода: 2018
Жанр: Фэнтези, боевик, приключения
Режиссер: Дон Майкл Пол
В ролях: Зэк МакГоун, Нэйтан Джонс, Питер Менса, Кэти Луиз Саундерс, Перл Туси, Ховард Чарльз, Нг Мэйлин, Инге Бекманн, Ризель Янук, Стефани Шилдкнект
О фильме:
Царь Скорпионов объединяется с женщином-воином Талой, сестрой Короля Нубии. Вместе они ищут легендарную Книгу Душ. Эта книга поможет им положить конец господству Лорда Войны.

Страна: США
Продолжительность: 01:42:21
Перевод: Любительский (двухголосый закадровый) | HiWay Grope

Файл
Кодек: XviD
Качество: WEBRip
Видео: 720x400, 23.976 fps, ~1803 kbps, 0.26 bit/pixel
Звук:
Аудио rus: AC3, 48 kHz, 2 ch, 192 Kbps
Субтитры: отсутствуют

Реклама: присутствует

Семпл

Релиз от: HiWay Grope


[+] MediaInfo:

General
Complete name                            : D:The.Scorpion.King.Book.of.Souls.2018.WEBRip.HiWayGropeThe.Scorpion.King.Book.of.Souls.2018.WEBRip.HiWayGrope.avi
Format                                   : AVI
Format/Info                              : Audio Video Interleave
Format profile                           : OpenDML
File size                                : 1.43 GiB
Duration                                 : 1 h 42 min
Overall bit rate                         : 2 002 kb/s
Writing application                      : Lavf57.71.100

Video
ID                                       : 0
Format                                   : MPEG-4 Visual
Format profile                           : Advanced Simple@L5
Format settings                          : BVOP1
Format settings, BVOP                    : 1
Format settings, QPel                    : No
Format settings, GMC                     : No warppoints
Format settings, Matrix                  : Default (H.263)
Codec ID                                 : XVID
Codec ID/Hint                            : XviD
Duration                                 : 1 h 42 min
Bit rate                                 : 1 798 kb/s
Width                                    : 720 pixels
Height                                   : 400 pixels
Display aspect ratio                     : 16:9
Frame rate                               : 23.976 (24000/1001) FPS
Color space                              : YUV
Chroma subsampling                       : 4:2:0
Bit depth                                : 8 bits
Scan type                                : Progressive
Compression mode                         : Lossy
Bits/(Pixel*Frame)                       : 0.260
Stream size                              : 1.29 GiB (90%)
Writing library                          : XviD 67

Audio
ID                                       : 1
Format                                   : AC-3
Format/Info                              : Audio Coding 3
Codec ID                                 : 2000
Duration                                 : 1 h 42 min
Bit rate mode                            : Constant
Bit rate                                 : 192 kb/s
Channel(s)                               : 2 channels
Channel positions                        : Front: L R
Sampling rate                            : 48.0 kHz
Frame rate                               : 31.250 FPS (1536 SPF)
Bit depth                                : 16 bits
Compression mode                         : Lossy
Stream size                              : 141 MiB (10%)
Alignment                                : Aligned on interleaves
Interleave, duration                     : 32  ms (0.77 video frame)
Service kind                             : Complete Main




Скриншоты:
[+] Всего файлов в раздаче - 1:
The.Scorpion.King.Book.of.Souls.2018.WEBRip.HiWayGrope.avi1.43 GB

Текущая раздача:
ДатаКомментарии    РазмерПиры
2018-10-31 U Царь Скорпионов: Книга Душ / The Scorpion King: Book of Souls (2018) WEBRip | L2 1.43 GB ↑ 253 ↓ 115

Показать еще раздачи по запросу царь:
2018-10-31 U Царь Скорпионов: Книга Душ / The Scorpion King: Book of Souls (2018) WEBRip 720p | L2 2.28 GB ↑ 193 ↓ 81
2018-07-02 U Андрей Белянин - Сотник и басурманский царь (2018) MP3 282.90 MB ↑ 75 ↓ 20
2018-06-25 U Царь обезьян: Новые легенды / The New Legends of Monkey [S01] (2018) WEBRip 1080p | BaibaKo 1К10.65 GB ↑ 51 ↓ 24
2018-05-29 U Царь обезьян: Царство женщин / Xi you ji nu er guo (2018) BDRip 1080p от Ash61 | 3D-Video | halfOU | L 14.53 GB ↑ 288 ↓ 39
2017-10-14 U Царь обезьян / У Кун / Wu Kong (2017) WEBDLRip-AVC от Batafurai Team и SOUND-GROUP | L2 2.05 GB ↑ 111 ↓ 41
2017-09-06 U Сказ про то, как царь Петр арапа женил (1976) HDTVRip-AVC 2.14 GB ↑ 41 ↓ 17
2017-02-05 U Три богатыря и Морской царь (2016) WEB-DLRip | iPad | iTunes 1.20 GB ↑ 1211 ↓ 116

Отзывы
Зарегистрируйтесь чтобы добавить комментарий.
Обратная связь
Copyleft ©