↑↓Torrent.by
Поиск
Логин: Регистрация
Пароль: Восстановить пароль
Загрузка...

Шоу Мистико / O Grande Circo Místico (2018) WEB-DL 1080р | iTunes

Скачать shou-mistiko-o-grande-circo-m-stico-2018-web-dl-1080r-itunes.torrent
U Магнитная ссылка Размер: 3.75 GB Раздают: 93 Качают: 16 Добавлен: 2018-11-01 04:09:03
Шоу Мистико / O Grande Circo Místico (2018) WEB-DL 1080р | iTunes

Шоу Мистико / Великий загадочный цирк / The Great Mystical Circus / O Grande Circo Místico

Страна: Бразилия  Португалия  Франция
Производство: Fado Filmes, Globo Filmes, Milonga Productions, Luz Magica Producoes
Год выпуска: 2018
Жанр:  драма
Продолжительность: 01:44:50

Режиссер: Карлус Диегис
Авторы сценария: Карлус Диегис, Джордж Мора, Хорхе де Лима

В ролях: Венсан Кассель, Мариана Шименес, Нуно Лопеш, Антонио Фагундес, Албану Жерониму, Давид Огродник, Антонио де ла Крус, Катрин Муше

Описание: В мае 1910 года, когда над Землей пронеслась комета Галлея, молодой красавец доктор Фред Кипс без ума влюбился в акробатку Беатрис, вопреки воле родителей взял ее в жены и купил для нее цирк, назвав его «Гранд Мистико». Так начинается эта наполненная волшебством и эротикой история, в которую вовлечены фокусник и секс-гигант Жан-Поль, звероподобный силач Рудольфо, близняшки Мария и Елена, зарабатывающие интимными услугами и полетами под куполом цирка, и прочие удивительные герои. Идут годы — Первая мировая война, Вторая, человек ступает на Луну, рушится берлинская стена, комета Галлея пронеслась над Землей снова… И только в «Гранд Мистико», как и сто лет назад, каждый вечер вечно юный загадочный шпрехшталмейстер Селяви объявляет о начале представления. Шоу продолжается…

Перевод: Профессиональный (дублированный) | iTunes
Субтитры: нет

Качество: WEB-DL 1080p
Формат: МКV
Видео кодек: AVC
Аудио кодек: АС3 | AAC
Видео: 1920x858 (2.25:1), 24.000 fps, MPEG-4 AVC ~4 602 kbps avg
Аудио №1: 48.0 kHz, AC3 Dolby Digital, 3/2 (L,C,R,l,r) + LFE ch, ~384 kbps | RUS
Аудио №2: 48.0 kHz, Advanced Audio Codec LC, 2/0 (L,R) ch, ~127 kbps | RUS

Дата премьеры (мир): 12 мая 2018
Дата премьеры (РФ): 23 августа 2018, «Cinema Prestige»

Семпл

Релиз от: ylnian


[+] Media Info
General
Уникальный идентификатор                 : 89103961609363466363308881762009210225 (0x4308CC7D05E6BBD6E04F71088333DD71)
Полное имя                               : O.Grande.Circo.Mistico.2018.WEBDL.1080p.iTunes.RUS-ylnian.mkv
Формат                                   : Matroska
Версия формата                           : Version 4 / Version 2
Размер файла                             : 3,75 Гбайт
Продолжительность                        : 1 ч. 44 м.
Общий поток                              : 5115 Кбит/сек
Название фильма                          : O.Grande.Circo.Mistico.2018.WEBDL.1080p.iTunes.RUS-ylnian
Дата кодирования                         : UTC 2018-10-30 04:20:52
Программа кодирования                    : mkvmerge v28.2.0 ('The Awakening') 64-bit
Библиотека кодирования                   : libebml v1.3.6 + libmatroska v1.4.9

Видео
Идентификатор                            : 1
Формат                                   : AVC
Формат/Информация                        : Advanced Video Codec
Профиль формата                          : High@L4
Настройки формата                        : CABAC / 5 Ref Frames
Параметр CABAC формата                   : Да
Параметр RefFrames формата               : 5 кадров
Параметр GOP формата                     : N=1
Идентификатор кодека                     : V_MPEG4/ISO/AVC
Продолжительность                        : 1 ч. 44 м.
Битрейт                                  : 4602 Кбит/сек
Ширина                                   : 1920 пикселей
Высота                                   : 858 пикселей
Соотношение сторон                       : 2,25:1
Режим частоты кадров                     : Постоянный
Частота кадров                           : 24,000 кадра/сек
Цветовое пространство                    : YUV
Субдискретизация насыщенности            : 4:2:0
Битовая глубина                          : 8 бит
Тип развёртки                            : Прогрессивная
Бит/(Пиксели*Кадры)                      : 0.116
Размер потока                            : 3,37 Гбайт (90%)
Заголовок                                : O.Grande.Circo.Mistico.2018.WEBDL.1080p.iTunes.RUS-ylnian
Язык                                     : Portuguese
Default                                  : Да
Forced                                   : Да
Цветовой диапазон                        : Limited
Основные цвета                           : BT.709
Характеристики трансфера                 : BT.709
Коэффициенты матрицы                     : BT.709

Аудио #1
Идентификатор                            : 2
Формат                                   : AC-3
Формат/Информация                        : Audio Coding 3
Идентификатор кодека                     : A_AC3
Продолжительность                        : 1 ч. 44 м.
Вид битрейта                             : Постоянный
Битрейт                                  : 384 Кбит/сек
Каналы                                   : 6 каналов
Расположение каналов                     : Front: L C R, Side: L R, LFE
Частота                                  : 48,0 КГц
Частота кадров                           : 31,250 кадров/сек (1536 SPF)
Битовая глубина                          : 16 бит
Метод сжатия                             : С потерями
Размер потока                            : 288 Мбайт (8%)
Заголовок                                : DUB - iTunes (AC3 5.1 384 kbps)
Язык                                     : Russian
Default                                  : Да
Forced                                   : Да

Аудио #2
Идентификатор                            : 3
Формат                                   : AAC
Формат/Информация                        : Advanced Audio Codec
Профиль формата                          : LC
Идентификатор кодека                     : A_AAC-2
Продолжительность                        : 1 ч. 44 м.
Битрейт                                  : 127 Кбит/сек
Каналы                                   : 2 канала
Расположение каналов                     : Front: L R
Частота                                  : 48,0 КГц
Частота кадров                           : 46,875 кадров/сек (1024 SPF)
Метод сжатия                             : С потерями
Размер потока                            : 95,2 Мбайт (2%)
Заголовок                                : DUB - iTunes (AAC 2.0)
Язык                                     : Russian
Default                                  : Нет
Forced                                   : Нет

Меню
00:00:00.000                             : pt:1
00:08:17.541                             : pt:2
00:16:24.874                             : pt:3
00:25:15.874                             : pt:4
00:33:38.207                             : pt:5
00:42:04.373                             : pt:6
00:50:51.081                             : pt:7
00:59:26.997                             : pt:8
01:07:39.913                             : pt:9
01:16:10.829                             : pt:10
01:24:57.912                             : pt:11
01:32:36.037                             : pt:12



Скриншоты:
[+] Всего файлов в раздаче - 1:
O.Grande.Circo.Mistico.2018.WEBDL.1080p.iTunes.RUS-ylnian.mkv3.75 GB

Текущая раздача:
ДатаКомментарии    РазмерПиры
2018-11-01 U Шоу Мистико / O Grande Circo Místico (2018) WEB-DL 1080р | iTunes 3.75 GB ↑ 93 ↓ 16

Похожие раздачи по запросу - мистико:
2018-11-01 U Шоу Мистико / O Grande Circo Místico (2018) WEB-DLRip | iTunes 1.46 GB ↑ 108 ↓ 25
2018-09-27 U Шоу Мистико / O Grande Circo Místico (2018) WEB-DLRip | D | Line 1.46 GB ↑ 167 ↓ 68
2018-09-26 U Шоу Мистико / O Grande Circo Mistico (2018) WEB-DLRip 720p | D 3.01 GB ↑ 197 ↓ 100

Отзывы
Зарегистрируйтесь чтобы добавить комментарий.
Обратная связь
Copyleft ©