↑↓Torrent.by
Поиск
Логин: Регистрация
Пароль: Восстановить пароль
Загрузка...

Лондонские поля / London Fields (2018) WEB-DL 1080p | iTunes

Скачать londonskie-polya-london-fields-2018-web-dl-1080p-itunes.torrent
U Магнитная ссылка Размер: 3.54 GB Раздают: 2066 Качают: 937 Добавлен: 2018-11-01 18:09:26
Лондонские поля / London Fields (2018) WEB-DL 1080p | iTunes

Название: Лондонские поля
Оригинальное название: London Fields
Год выпуска: 2018
Жанр:  Триллер, криминал, детектив
Режиссер: Мэтью Каллен
В ролях: Эмбер Хёрд, Джемма Чан, Кара Делевинь, Тео Джеймс, Джейсон Айзекс, Джейми Александер, Билли Боб Торнтон, Джим Стёрджесс, Лили Коул, Генри Гаррет

О фильме:
Никола Сикс, роковая красотка, обладающая даром ясновидения, живет с предчувствием своей скорой смерти. Не удержавшись, она начинает опасный любовный роман сразу с тремя совершено разными мужчинами, хотя Никола точно знает, что один из них вскоре станет её убийцей...

Страна: Великобритания, США
Студия: Muse Productions, Periscope Entertainment, Curiously Bright Entertainment
Продолжительность: 01:43:07
Перевод: Дублированный | iTunes

Файл
Формат: MKV
Качество: WEB-DL 1080p
Видео: 1920x804, 25.000 fps, 4431 Кбит/с
Аудио: 384 Кбит/с, 6 ch, 48.0 KHz
Субтитры: Нет


[+] Доп. информация
Бюджет: $8 000 000
Сборы в России: $178 279

Дата мировой премьеры: 6 сентября 2018
Дата российской премьеры: 20 сентября 2018, «Парадиз»



[+] M/I
General
Unique ID                   : 226899317973756266852879743856153240100 (0xAAB33815EED3E9378060686F2E68A224)
Complete name               : Лондонские поля.2O18.D.WEB-DL.1O8Oр.mkv
Format                      : Matroska
Format version              : Version 2
File size                   : 3.54 GiB
Duration                    : 1 h 43 min
Overall bit rate            : 4 913 kb/s
Encoded date                : UTC 2018-10-31 18:07:50
Writing application         : mkvmerge v8.3.0 ('Over the Horizon') 64bit
Writing library             : libebml v1.3.1 + libmatroska v1.4.2

Video
ID                          : 1
Format                      : AVC
Format/Info                 : Advanced Video Codec
Format profile              : High@L4
Format settings             : CABAC / 5 Ref Frames
Format settings, CABAC      : Yes
Format settings, ReFrames   : 5 frames
Codec ID                    : V_MPEG4/ISO/AVC
Duration                    : 1 h 43 min
Bit rate                    : 4 431 kb/s
Width                       : 1 920 pixels
Height                      : 804 pixels
Display aspect ratio        : 2.40:1
Frame rate mode             : Constant
Frame rate                  : 25.000 FPS
Color space                 : YUV
Chroma subsampling          : 4:2:0
Bit depth                   : 8 bits
Scan type                   : Progressive
Bits/(Pixel*Frame)          : 0.115
Stream size                 : 3.19 GiB (90%)
Language                    : English
Default                     : Yes
Forced                      : No
Color range                 : Limited
Color primaries             : BT.709
Transfer characteristics    : BT.709
Matrix coefficients         : BT.709

Audio
ID                          : 2
Format                      : AC-3
Format/Info                 : Audio Coding 3
Commercial name             : Dolby Digital
Codec ID                    : A_AC3
Duration                    : 1 h 43 min
Bit rate mode               : Constant
Bit rate                    : 384 kb/s
Channel(s)                  : 6 channels
Channel layout              : L R C LFE Ls Rs
Sampling rate               : 48.0 kHz
Frame rate                  : 31.250 FPS (1536 SPF)
Bit depth                   : 16 bits
Compression mode            : Lossy
Stream size                 : 283 MiB (8%)
Language                    : Russian
Service kind                : Complete Main
Default                     : Yes
Forced                      : No

Menu
00:00:00.000                : en:Глава 1
00:04:38.440                : en:Глава 2
00:11:54.880                : en:Глава 3
00:16:56.480                : en:Глава 4
00:23:34.320                : en:Глава 5
00:28:31.880                : en:Глава 6
00:33:40.200                : en:Глава 7
00:38:58.440                : en:Глава 8
00:44:29.360                : en:Глава 9
00:49:09.600                : en:Глава 10
00:55:51.760                : en:Глава 11
01:02:47.360                : en:Глава 12
01:07:43.240                : en:Глава 13
01:14:39.240                : en:Глава 14
01:20:39.960                : en:Глава 15
01:26:58.160                : en:Глава 16
01:30:51.520                : en:Глава 17
01:36:58.280                : en:Глава 16



Скриншоты:
[+] Всего файлов в раздаче - 1:
London.Fields.2O18.D.WEB-DL.1O8Oр.mkv3.54 GB

Текущая раздача:
ДатаКомментарии    РазмерПиры
2018-11-01 U Лондонские поля / London Fields (2018) WEB-DL 1080p | iTunes 3.54 GB ↑ 2066 ↓ 937

Похожие раздачи по запросу - лондонские:
2018-11-04 U Лондонские поля / London Fields (2018) WEB-DLRip от MegaPeer | iTunes 745.33 MB ↑ 61 ↓ 16
2018-11-03 U Лондонские поля / London Fields (2018) WEB-DL 720p | iTunes 3.18 GB ↑ 131 ↓ 44
2018-11-01 U Лондонские поля / London Fields (2018) WEB-DLRip от MegaPeer | iTunes 1.46 GB ↑ 196 ↓ 82

Отзывы
Зарегистрируйтесь чтобы добавить комментарий.
Обратная связь
Copyleft ©