↑↓Torrent.by
Поиск
Логин: Регистрация
Пароль: Восстановить пароль
Загрузка...

Мег: Монстр глубины / The Meg (2018) WEB-DLRip-AVC от ExKinoRay | iTunes

Скачать meg-monstr-glubiny-the-2018-web-dlrip-avc-ot-exkinoray-itunes.torrent
U Магнитная ссылка Размер: 745.26 MB Раздают: 92 Качают: 17 Добавлен: 2018-11-02 04:16:18
Мег: Монстр глубины / The Meg (2018) WEB-DLRip-AVC от ExKinoRay | iTunes

Название: Мег: Монстр глубины
Оригинальное название: The Meg
Год выпуска: 2018
Жанр:  Ужасы, фантастика, боевик, триллер
Режиссер: Джон Тёртлтауб
В ролях: Джейсон Стэйтем, Бинбин Ли, Рэйн Уилсон, Клифф Кёртис, Уинстон Чао, Шуя Софиа Цай, Руби Роуз, Пейдж Кеннеди, Роберт Тейлор (II), Оулавюр Дарри Оулафссон, Джессика МакНэми, Маси Ока, Хунмэй Мэй, Витхая Пансрингарм, Роб Уильямс, Таванда Маниймо

О фильме :
Глубоководный батискаф, осуществляющий наблюдение в рамках международной программы по изучению подводной жизни, был атакован огромным существом, которое все считали давно вымершим. Неисправный аппарат теперь лежит на дне глубочайшей впадины Тихого океана… с оказавшимся в ловушке экипажем. Их время на исходе. Китайский океанограф-новатор, несмотря на протесты его дочери Суинь, зовет спасателя-подводника Джонаса Тейлора, чтобы тот помог спасти команду и океан от невиданной угрозы — доисторической 23-метровой акулы, мегалодона. Никто и подумать не мог, что много лет назад Тейлор уже сталкивался с этим чудовищным созданием.

Страна: Китай, США
Студия: Apelles Entertainment, Di Bonaventura Pictures, Flagship Entertainment Group
Продолжительность: 01:53:11
Перевод: Дублированный | iTunes

Файл
Формат: MKV
Качество: WEB-DLRip-AVC
Видео: MPEG-4 AVC, 768x320, - 844 Кбит/с
Аудио:  AAC-HE, 2 ch, - 76 Кбит/с
Субтитры: Русские (Forced, full), украинские (Forced), английские


[+] MI
Общее
Уникальный идентификатор : 218939269246885659710534663108891486658 (0xA4B62B62063F225493929859E233A9C2)
Полное имя : D:MOVIESThe.Meg.2018.ExKinoRay.mkv
Формат : Matroska
Версия формата : Version 4 / Version 2
Размер файла : 745 Мбайт
Продолжительность : 1 ч. 53 м.
Общий поток : 921 Кбит/сек
Дата кодирования : UTC 2018-11-01 04:31:38
Программа кодирования : mkvmerge v15.0.0 ('Duel with the Devil') 64-bit
Библиотека кодирования : libebml v1.3.5 + libmatroska v1.4.5

Видео
Идентификатор : 1
Формат : AVC
Формат/Информация : Advanced Video Codec
Профиль формата : High@L4.1
Параметр CABAC формата : Да
Параметр RefFrames формата : 12 кадров
Идентификатор кодека : V_MPEG4/ISO/AVC
Продолжительность : 1 ч. 53 м.
Битрейт : 844 Кбит/сек
Ширина : 768 пикселей
Высота : 320 пикселей
Соотношение сторон : 2,40:1
Режим частоты кадров : Постоянный
Частота кадров : 23,976 (24000/1001) кадра/сек
Цветовое пространство : YUV
Субдискретизация насыщенности : 4:2:0
Битовая глубина : 8 бит
Тип развёртки : Прогрессивная
Бит/(Пиксели*Кадры) : 0.143
Размер потока : 682 Мбайт (92%)
Библиотека кодирования : x264 core 152 r2851kMod ba24899
Настройки программы : cabac=1 / ref=12 / deblock=1:-3:-3 / analyse=0x3:0x133 / me=umh / subme=10 / psy=1 / fade_compensate=0.00 / psy_rd=1.00:0.15 / mixed_ref=1 / me_range=32 / chroma_me=1 / trellis=2 / 8x8dct=1 / cqm=0 / deadzone=21,11 / fast_pskip=0 / chroma_qp_offset=-3 / threads=6 / lookahead_threads=1 / sliced_threads=0 / nr=0 / decimate=0 / interlaced=0 / bluray_compat=0 / constrained_intra=0 / bframes=11 / b_pyramid=2 / b_adapt=2 / b_bias=0 / direct=3 / weightb=1 / open_gop=0 / weightp=2 / keyint=240 / keyint_min=23 / scenecut=40 / intra_refresh=0 / rc_lookahead=40 / rc=2pass / mbtree=1 / bitrate=844 / ratetol=1.0 / qcomp=0.60 / qpmin=0 / qpmax=69 / qpstep=4 / cplxblur=20.0 / qblur=0.5 / ip_ratio=1.40 / aq=3:1.00
Default : Да
Forced : Нет

Аудио
Идентификатор : 2
Формат : AAC
Формат/Информация : Advanced Audio Codec
Профиль формата : HE-AAC / LC
Идентификатор кодека : A_AAC
Продолжительность : 1 ч. 53 м.
Битрейт : 76,0 Кбит/сек
Каналы : 2 канала
Расположение каналов : Front: L R
Частота : 48,0 КГц / 24,0 КГц
Частота кадров : 23,438 кадра/сек (1024 SPF)
Метод сжатия : С потерями
Задержка видео : 31 мс.
Размер потока : 61,5 Мбайт (8%)
Default : Да
Forced : Нет

Текст #1
Идентификатор : 3
Формат : UTF-8
Идентификатор кодека : S_TEXT/UTF8
Идентификатор кодека/Информация : UTF-8 Plain Text
Продолжительность : 1 ч. 41 м.
Битрейт : 5 бит/сек
ElementCount : 97
Размер потока : 3,81 Кбайт (0%)
Заголовок : Forced
Язык : Russian
Default : Да
Forced : Да

Текст #2
Идентификатор : 4
Формат : UTF-8
Идентификатор кодека : S_TEXT/UTF8
Идентификатор кодека/Информация : UTF-8 Plain Text
Продолжительность : 1 ч. 52 м.
Битрейт : 78 бит/сек
ElementCount : 1203
Размер потока : 64,6 Кбайт (0%)
Заголовок : Full
Язык : Russian
Default : Нет
Forced : Нет

Текст #3
Идентификатор : 5
Формат : UTF-8
Идентификатор кодека : S_TEXT/UTF8
Идентификатор кодека/Информация : UTF-8 Plain Text
Продолжительность : 1 ч. 52 м.
Битрейт : 5 бит/сек
ElementCount : 111
Размер потока : 4,20 Кбайт (0%)
Заголовок : Forced
Язык : Ukrainian
Default : Нет
Forced : Нет

Текст #4
Идентификатор : 6
Формат : UTF-8
Идентификатор кодека : S_TEXT/UTF8
Идентификатор кодека/Информация : UTF-8 Plain Text
Продолжительность : 1 ч. 41 м.
Битрейт : 51 бит/сек
ElementCount : 1409
Размер потока : 38,1 Кбайт (0%)
Заголовок : SDH
Язык : English
Default : Нет
Forced : Нет

Меню
00:00:00.000 : en:1
00:08:48.000 : en:2
00:18:14.000 : en:3
00:27:10.000 : en:4
00:39:31.000 : en:5
00:49:11.000 : en:6
00:58:01.000 : en:7
01:08:23.000 : en:8
01:19:46.000 : en:9
01:30:04.000 : en:10
01:42:43.000 : en:11



Скриншоты:
[+] Всего файлов в раздаче - 1:
The.Meg.2018.ExKinoRay.mkv745.26 MB

Текущая раздача:
ДатаКомментарии    РазмерПиры
2018-11-02 U Мег: Монстр глубины / The Meg (2018) WEB-DLRip-AVC от ExKinoRay | iTunes 745.26 MB ↑ 92 ↓ 17

Показать еще раздачи по запросу монстр:
2018-11-12 U Мег: Монстр глубины / The Meg (2018) HDRip от Scarabey | Лицензия 1.45 GB ↑ 73 ↓ 18
2018-11-12 U Мег: Монстр глубины / The Meg (2018) BDRip 1080p от qqss44 & MegaPeer | Лицензия 7.60 GB ↑ 133 ↓ 55
2018-11-11 U Мег: Монстр глубины / The Meg (2018) BDRip-AVC от HELLYWOOD | Лицензия 2.91 GB ↑ 96 ↓ 56
2018-11-11 U Мег: Монстр глубины / The Meg (2018) BDRip 1080p от селезень | Лицензия 11.95 GB ↑ 101 ↓ 81
2018-11-11 U Мег: Монстр глубины / The Meg (2018) BDRip 720p от селезень | Лицензия 5.63 GB ↑ 121 ↓ 77
2018-11-11 U Мег: Монстр глубины / The Meg (2018) BDRip от MegaPeer | Лицензия 1.46 GB ↑ 24 ↓ 54
2018-11-08 U Мег: Монстр глубины / The Meg (2018) BDRip от ExKinoRay | iTunes 2.14 GB ↑ 107 ↓ 42

Отзывы
Зарегистрируйтесь чтобы добавить комментарий.
Обратная связь
Copyleft ©