↑↓Torrent.by
Поиск
Логин: Регистрация
Пароль: Восстановить пароль
Загрузка...

Мажор [03x01-04 из 16] (2018) WEB-DLRip от GeneralFilm

Скачать mazhor-03x01-04-iz-16-2018-web-dlrip-ot-generalfilm.torrent
U Магнитная ссылка Размер: 2.18 GB Раздают: 130 Качают: 248 Добавлен: 2018-11-02 10:16:52
Мажор [03x01-04 из 16] (2018) WEB-DLRip от GeneralFilm

Оригинальное название: Мажор
Год выпуска: 2018
Жанр:  Криминал, драма
Режиссер: Игорь Твердохлебов
В ролях: Павел Прилучный, Карина Разумовская, Дмитрий Шевченко, Александр Обласов, Дмитрий Лысенков, Игорь Черневич, Михаил Елисеев, Анна Цуканова-Котт, Дана Абызова, Игорь Жижикин, Анна Вартанян, Михаил Шеломенцев, Даниил Кокин, Игорь Грабузов, Антон Чернов, Владимир Селезнёв (II), Игорь Ключников

О фильме: Игорь Соколовский давно перестал быть тем Мажором, для которого служба в полиции – вынужденная «ссылка». Давняя смерть матери и недавнее убийство отца – два события, определившие его дальнейшую жизнь – могут быть раскрыты во многом благодаря этой службе. Мажор растёт как профессионал, ежедневно работая над раскрытием различных преступлений, но расследование главной драмы его жизни ставит перед ним новые задачи. Чтобы отомстить за смерть отца, он в совершенстве овладел бизнес-стратегиями, чтобы найти и наказать убийцу матери, ему нужно освоить нечто совершенно новое. И самое сложное при этом – остаться в рамках закона. В поисках преступника Мажор окажется у черты, но останутся ли у него законные средства, чтобы наказать убийцу?

Страна: Россия
Студия: Продюсерский центр «Среда»
Продолжительность: 4 x ~ 00:50:00
Перевод: Не требуется
Субтитры: нет

Файл
Формат: avi
Качество: WEB-DLRip
Видео: XviD build 73, 720x400 (16:9), 25.000 fps, ~ 1420 Kbps (~ 0.200 bit/pixel)
Звук: 48.0 kHz, AC3, 2/0 ch, 192 kbps

Релиз:


[+] MediaInfo
General
Complete name               : D:RazdachiMazhor.s03.2018.XviD.WEB-DLRip.GeneralFilmMazhor.s03.e01.avi
Format                      : AVI
Format/Info                 : Audio Video Interleave
File size                   : 557 MiB
Duration                    : 48 min 11 s
Overall bit rate            : 1 616 kb/s
Writing application         : VirtualDubMod 1.5.10.3 | www.virtualdub-fr.org || (build 2550/release)
Writing library             : VirtualDubMod build 2550/release

Video
ID                          : 0
Format                      : MPEG-4 Visual
Format profile              : Advanced Simple@L5
Format settings, BVOP       : 1
Format settings, QPel       : No
Format settings, GMC        : No warppoints
Format settings, Matrix     : Custom
Codec ID                    : XVID
Codec ID/Hint               : XviD
Duration                    : 48 min 11 s
Bit rate                    : 1 414 kb/s
Width                       : 720 pixels
Height                      : 400 pixels
Display aspect ratio        : 16:9
Frame rate                  : 25.000 FPS
Color space                 : YUV
Chroma subsampling          : 4:2:0
Bit depth                   : 8 bits
Scan type                   : Progressive
Compression mode            : Lossy
Bits/(Pixel*Frame)          : 0.196
Stream size                 : 487 MiB (88%)
Writing library             : XviD 73

Audio
ID                          : 1
Format                      : AC-3
Format/Info                 : Audio Coding 3
Format settings, Endianness : Big
Codec ID                    : 2000
Duration                    : 48 min 11 s
Bit rate mode               : Constant
Bit rate                    : 192 kb/s
Channel(s)                  : 2 channels
Channel positions           : Front: L R
Sampling rate               : 48.0 kHz
Frame rate                  : 31.250 FPS (1536 SPF)
Bit depth                   : 16 bits
Compression mode            : Lossy
Stream size                 : 66.2 MiB (12%)
Alignment                   : Split accross interleaves
Interleave, duration        : 40  ms (1.00 video frame)
Interleave, preload duratio : 500  ms
Service kind                : Complete Main



Скриншоты:
[+] Всего файлов в раздаче - 4:
Mazhor.s03.e01.avi556.92 MB
Mazhor.s03.e02.avi557.06 MB
Mazhor.s03.e03.avi557.40 MB
Mazhor.s03.e04.avi556.86 MB

Текущая раздача:
ДатаКомментарии    РазмерПиры
2018-11-02 U Мажор [03x01-04 из 16] (2018) WEB-DLRip от GeneralFilm 2.18 GB ↑ 130 ↓ 248

Показать еще раздачи по запросу мажор:
Сегодня U Мажор [03x01-15 из 16] (2018) WEB-DLRip, WEBRip от Files-x 8.49 GB ↑ 161 ↓ 512
Сегодня U Мажор [03х01-15 из 16] (2018) HDTVRip от GeneralFilm 9.72 GB ↑ 163 ↓ 489
Сегодня U Мажор [03х01-16 из 16] (2018) SATRip-AVC 9.91 GB ↑ 1 ↓ 23
Сегодня U Мажор [03x01-15 из 16] (2018) SATRip 9.04 GB ↑ 336 ↓ 1304
Вчера U Мажор [03x01-14 из 16] (2018) WEB-DLRip от Files-x 7.94 GB ↑ 55 ↓ 209
Вчера U Мажор [03x01-14 из 16] (2018) SATRip 8.45 GB ↑ 362 ↓ 1244
2018-11-13 U Мажор [03х13 из 16] (2018) HDTV 1080i 1.88 GB ↑ 138 ↓ 44

Отзывы
Зарегистрируйтесь чтобы добавить комментарий.
Обратная связь
Copyleft ©